<?xml version="1.0" standalone="no"?>
<!DOCTYPE svg PUBLIC "-//W3C//DTD SVG 1.1//EN" "http://www.w3.org/Graphics/SVG/1.1/DTD/svg11.dtd" >
<svg xmlns="http://www.w3.org/2000/svg">
<metadata></metadata>
<defs>
<font id="DBHelvethaicaX73BdExt73BdExt" horiz-adv-x="0" >
<font-face units-per-em="2048" ascent="1638" descent="-410" />
<missing-glyph horiz-adv-x="389" />
<glyph unicode="&#x2b;&#x2d;" horiz-adv-x="796" d="M43 0v152h711v-152h-711zM43 385v153h279v202h153v-202h279v-153h-279v-199h-153v199h-279z" />
<glyph unicode="&#x2e;&#x2e;&#x2e;" horiz-adv-x="1325" d="M121 -2v194h203v-194h-203zM561 -2v194h205v-194h-205zM1002 -2v194h202v-194h-202z" />
<glyph unicode="&#x3c;&#x3d;" horiz-adv-x="880" d="M80 0v152h718v-152h-718zM80 467v153l718 306v-162l-520 -219l520 -219v-162z" />
<glyph unicode="&#x3e;&#x3d;" horiz-adv-x="880" d="M82 0v152h719v-152h-719zM82 164v162l520 219l-520 219v162l719 -306v-153z" />
<glyph unicode=" "  horiz-adv-x="389" />
<glyph unicode="&#x09;" horiz-adv-x="389" />
<glyph unicode="&#xa0;" horiz-adv-x="389" />
<glyph unicode="!" horiz-adv-x="485" d="M137 0v203h211v-203h-211zM137 674v270h213v-270l-34 -394h-144z" />
<glyph unicode="&#x22;" horiz-adv-x="641" d="M116 608v336h166v-336h-166zM352 608v336h166v-336h-166z" />
<glyph unicode="#" horiz-adv-x="887" d="M56 258v160h151q2 19 3.5 30.5t3.5 22.5t4 23t5 34h-135v158h156l36 258h160l-34 -258h106l35 258h161l-32 -258h118v-158h-136l-17 -110h117v-160h-142q-10 -68 -19 -131t-17 -127h-164l36 258h-102l-38 -258h-162l34 258h-128zM370 418h105l17 110h-105z" />
<glyph unicode="$" horiz-adv-x="907" d="M10 342h213q1 -43 14 -72.5t34 -49.5t49 -31t59 -17v232q-42 6 -83 13.5t-78.5 21t-70.5 32.5t-57 47t-37.5 66t-13.5 88q0 62 22 113t65 88t106.5 60t146.5 29v95h125v-95q45 -3 88.5 -11.5t82.5 -24.5t73 -41t60 -59.5t42 -81t20 -105.5h-210q-4 21 -13 42t-26 39 t-45 31.5t-72 20.5v-200q44 -6 90 -14.5t90 -22t83 -33.5t68 -49t45.5 -68t16.5 -90q0 -60 -15.5 -105.5t-43.5 -80t-65.5 -58t-81 -39t-91.5 -23t-96 -9.5v-120h-125v124q-48 4 -94.5 14t-87.5 28t-75.5 45t-59 66t-38.5 89.5t-14 115.5zM254 672q0 -12 6 -24t20 -22 t38.5 -19t60.5 -15v182q-24 -3 -47 -10.5t-40.5 -20t-27.5 -30t-10 -41.5zM504 166q40 2 73 10t56.5 21.5t36 33t12.5 43.5q0 20 -9 37.5t-30 31t-55 24t-84 16.5v-217z" />
<glyph unicode="%" horiz-adv-x="1325" d="M90 682q0 58 15 107t46 84t77 55t108 20q64 0 111 -20t78 -55t46 -84t15 -107q0 -60 -15 -109.5t-46 -85t-78 -54.5t-111 -19q-62 0 -108 19t-77 54.5t-46 85t-15 109.5zM246 682q0 -68 22.5 -102.5t67.5 -34.5t69.5 34.5t24.5 102.5q0 66 -24.5 100.5t-69.5 34.5 t-67.5 -34.5t-22.5 -100.5zM326 -6l520 954h156l-520 -954h-156zM740 260q0 60 14.5 109.5t45 85t77.5 54.5t112 19q63 0 109.5 -19t77 -54.5t46 -85t15.5 -109.5q0 -59 -15.5 -108t-46 -84t-77 -54.5t-109.5 -19.5q-64 0 -111.5 19.5t-78 54.5t-45 84t-14.5 108zM895 260 q0 -68 24.5 -101.5t69.5 -33.5t69 33.5t24 101.5t-24 102t-69 34q-44 0 -69 -34t-25 -102z" />
<glyph unicode="&#x26;" horiz-adv-x="1081" d="M82 270q0 42 11 82t35.5 75t65 66t99.5 56q-23 24 -37 46.5t-22 42.5t-10.5 39t-2.5 38q0 53 18.5 96t53.5 74t85 48q52 17 116 17q63 0 112.5 -18t84.5 -49t53 -72t18 -88q0 -27 -8 -56t-26 -58t-47 -56t-71 -49q22 -20 42.5 -37.5l41 -35t41.5 -36.5t45 -41q8 20 12 48 t9 71h193q-2 -66 -18 -129.5t-50 -120.5l262 -229h-285l-98 84q-30 -28 -66.5 -48t-78.5 -33t-87 -19t-91 -6q-76 0 -135 12.5t-104 34.5t-75.5 51.5t-49.5 62.5t-27.5 68t-8.5 69zM289 274q0 -21 9.5 -43.5t32.5 -41.5t61 -31t94 -12q27 0 52.5 2t48.5 7t44 15t39 26 l-244 228q-40 -18 -67 -37t-42 -37t-21.5 -37t-6.5 -39zM414 721q0 -22 16 -44.5t49 -54.5q48 24 69.5 47.5t21.5 45.5q0 12 -6 22.5t-15.5 18.5t-23 13t-29.5 5q-42 0 -62 -15.5t-20 -37.5z" />
<glyph unicode="'" horiz-adv-x="444" d="M140 608v336h165v-336h-165z" />
<glyph unicode="(" horiz-adv-x="542" d="M68 348q0 174 59 329t180 298h187q-59 -88 -100.5 -165.5t-67.5 -152.5t-38 -150.5t-12 -158.5q0 -82 12 -157t37.5 -150t67 -154t101.5 -167h-189q-53 74 -97 146.5t-75 148t-48 157.5t-17 176z" />
<glyph unicode=")" horiz-adv-x="542" d="M49 -280q60 89 101.5 167.5t67 153.5t37 150t11.5 157q0 83 -12 158.5t-37.5 150.5t-67 153t-100.5 165h187q122 -143 180.5 -298t58.5 -329q0 -94 -17.5 -176t-48.5 -157.5t-75 -148t-96 -146.5h-189z" />
<glyph unicode="*" horiz-adv-x="616" d="M58 735l44 127l138 -49v143h139v-143l133 49l53 -124l-145 -52l86 -118l-110 -78l-84 118l-82 -120l-120 75l86 123z" />
<glyph unicode="+" horiz-adv-x="846" d="M68 293v151h278v281h154v-281h278v-151h-278v-279h-154v279h-278z" />
<glyph unicode="," horiz-adv-x="444" d="M119 0v198h207v-157q0 -43 -11 -83t-36 -73t-64 -57t-96 -33v109q36 10 54.5 31.5t22.5 64.5h-77z" />
<glyph unicode="-" horiz-adv-x="755" d="M68 293v151h620v-151h-620z" />
<glyph unicode="." horiz-adv-x="444" d="M119 -2v198h207v-198h-207z" />
<glyph unicode="/" horiz-adv-x="577" d="M-10 -37l393 1001h207l-398 -1001h-202z" />
<glyph unicode="0" horiz-adv-x="901" d="M35 459q0 66 9.5 126.5t29.5 114t52 97t78 75.5t106 49t138 17t139.5 -17t108 -49t79 -75.5t53 -97t29.5 -114.5t9 -126q0 -66 -9 -127.5t-29.5 -114.5t-53 -97t-79 -75t-108 -48t-139.5 -17t-138 17t-106 48t-78 75t-52 97t-29.5 114.5t-9.5 127.5zM250 459q0 -22 2 -54 t9 -66t20 -67.5t35 -60.5t54 -43t78 -16t79 16t55.5 43t35.5 60.5t20 67.5t9 66t2 54t-2 53.5t-9 65.5t-20 67t-35.5 60t-55.5 43t-79 16t-78 -16t-54 -43t-35 -60t-20 -67t-9 -65t-2 -54z" />
<glyph unicode="1" horiz-adv-x="901" d="M144 586v182q62 -2 106 5t74 20t48.5 30.5t28 36t13.5 36.5t6 32h182v-928h-213v628q-22 -12 -49 -20t-58.5 -13t-66.5 -7t-71 -2z" />
<glyph unicode="2" horiz-adv-x="901" d="M47 0q5 69 23 124t46 98.5t63 76.5t74 60t80 48t81 39t78 38t67 43t47 48.5t18 55.5q0 35 -13 60.5t-35 42t-50 24.5t-59 8q-50 0 -86.5 -16t-60.5 -44t-36 -66t-14 -83h-206q0 84 23.5 154t72.5 120.5t124 78.5t177 28q96 0 167.5 -23.5t118.5 -65t70 -97.5t23 -121 q0 -47 -14 -86t-37 -71.5t-54 -59t-67 -48.5t-74 -41t-76 -36q-26 -12 -51 -23.5t-49 -24.5t-45 -26t-37 -27h504v-188h-793z" />
<glyph unicode="3" horiz-adv-x="901" d="M39 322h205q3 -46 19.5 -79t43.5 -53t63 -29t78 -9q44 0 80 9.5t60.5 27t37.5 41.5q13 22 13 50q0 32 -14.5 54t-40 36t-60.5 21q-36 7 -76 7h-78v172q12 -1 22 -2t20 -1.5t22 -1t27 -0.5q32 0 57.5 7t43.5 19.5t27 29.5t9 39q0 29 -14 48.5t-37 32.5t-51 18t-58 5 q-42 0 -72.5 -11t-52 -32t-33 -50.5t-14.5 -66.5h-206q6 84 36.5 146.5t81 104t117.5 62.5t147 21q96 0 166.5 -23t116 -61t67.5 -86q21 -48 21 -100q0 -23 -5 -46.5t-14.5 -45.5t-23.5 -42t-32 -36q60 -28 88 -81t28 -131q0 -62 -23.5 -117.5t-72 -97.5t-122.5 -66.5 t-175 -24.5q-18 0 -45.5 0.5t-60.5 4.5t-69 12.5t-71 24.5t-67 41t-56 61t-38.5 85t-14.5 113z" />
<glyph unicode="4" horiz-adv-x="901" d="M35 205v161l503 562h170v-547h160v-176h-160v-205h-206v205h-467zM291 381h211v239z" />
<glyph unicode="5" horiz-adv-x="901" d="M37 280h203q12 -36 29 -60t42 -39t58 -22t75 -7q35 0 69.5 8t62.5 26.5t44.5 49t16.5 76.5q0 39 -15.5 67.5t-41.5 47.5t-60 28.5t-72 9.5q-26 0 -52 -2.5t-51 -10.5t-48 -22t-41 -37l-190 13l90 522h628v-188h-464q-3 -17 -5.5 -31t-4.5 -28.5t-5 -32.5t-8 -42 q40 17 82.5 24t87.5 7q42 0 86.5 -6.5t87.5 -21t81 -38.5t67 -59.5t46 -83.5t17 -110q0 -77 -29.5 -139.5t-84 -106.5t-132 -68t-172.5 -24q-86 0 -158 22t-123.5 62.5t-82.5 95.5q-30 54 -33 120z" />
<glyph unicode="6" horiz-adv-x="901" d="M39 442q0 88 13.5 156t36.5 119.5t54.5 88t67 60.5t73 38.5t73.5 22t68.5 9.5t58.5 2q30 0 65 -4t71 -15.5t70 -31t63.5 -50t51 -73t33.5 -100.5h-210q-6 28 -20 47.5t-36 32t-50 17.5t-61 5q-36 0 -68.5 -11t-58.5 -35t-43 -60t-23 -88q22 14 45 24t48 17.5t53 11 t61 3.5q44 0 89.5 -6t88.5 -20t81 -38t66.5 -59t45 -83t16.5 -110q0 -36 -10 -75t-30 -76t-52 -70t-76 -58t-101 -39t-128 -14q-113 0 -193.5 31t-132 91t-76 146t-24.5 194zM270 309q0 -30 12 -58t35 -49.5t59 -33.5t83 -12q48 0 83 12t58.5 33.5t35 49.5t11.5 58 t-11.5 58.5t-35 49.5t-59 33.5t-82.5 12.5q-48 0 -83.5 -12.5t-58.5 -33.5t-35 -49t-12 -59z" />
<glyph unicode="7" horiz-adv-x="901" d="M68 735v193h758v-158q-72 -87 -133.5 -175t-111 -181.5t-87.5 -196t-64 -217.5h-225q27 104 65 205t86 195t103 179t115 156h-506z" />
<glyph unicode="8" horiz-adv-x="901" d="M37 286q0 42 11.5 76t30.5 60.5t42 46t47 33.5q-26 16 -42.5 36t-27 43t-14.5 48t-4 49q0 58 25 106t73 82t117 53t155 19t155 -17t117 -50t73.5 -81.5t25.5 -111.5q0 -51 -21.5 -95.5t-64.5 -76.5q27 -16 50 -38t40 -50t27 -61t10 -71q0 -30 -7 -64t-25 -68.5t-48.5 -66 t-76.5 -55.5t-109.5 -38t-147.5 -14q-83 0 -145.5 14t-108.5 38t-76 55.5t-48 66t-25.5 68.5t-7.5 64zM252 280q0 -26 11 -49t35 -40.5t61 -28t89 -10.5q54 0 92 10.5t62 28t34.5 40.5t10.5 49t-10.5 49t-34.5 40.5t-62 28t-92 10.5q-52 0 -89 -10.5t-61 -28t-35 -40.5 t-11 -49zM293 672q0 -17 10 -34t29.5 -30.5t49.5 -21.5t68 -8q39 0 69 8t49.5 21.5t29.5 30.5t10 34q0 16 -10 32t-29.5 29t-49 22t-69.5 9q-39 0 -68.5 -9t-49 -22t-29.5 -29t-10 -32z" />
<glyph unicode="9" horiz-adv-x="901" d="M39 606q0 36 9.5 75t30.5 76t53 70t76 57.5t101 39t127 14.5q113 0 193.5 -31.5t132.5 -91t76 -145.5t24 -195q0 -88 -13.5 -156t-37 -119.5t-54.5 -87.5t-66 -60.5t-73 -39t-74 -21.5t-68 -9t-58 -2q-31 0 -66 4t-71 15t-70.5 31t-63.5 50t-51 73t-32 101h208 q6 -28 21 -48t37 -32t50 -17t60 -5q36 0 69 11t58.5 34.5t43 60t22.5 88.5q-22 -14 -45 -24.5t-48 -18t-53 -11t-61 -3.5q-44 0 -89 6t-88 20.5t-81.5 38t-67 59t-45 83t-16.5 110.5zM254 608q0 -31 11.5 -58.5t35 -48.5t59.5 -34q34 -13 82 -13t83.5 13t59 34t35 49 t11.5 58t-11.5 58t-35 49.5t-59 34t-83.5 12.5t-83 -12.5t-58.5 -34t-35 -49.5t-11.5 -58z" />
<glyph unicode=":" horiz-adv-x="444" d="M119 -2v198h207v-198h-207zM119 484v198h207v-198h-207z" />
<glyph unicode=";" horiz-adv-x="444" d="M119 0v198h207v-157q0 -43 -11 -83t-36 -73t-64 -57t-96 -33v109q36 10 54.5 31.5t22.5 64.5h-77zM119 484v198h207v-198h-207z" />
<glyph unicode="&#x3c;" horiz-adv-x="878" d="M84 316v118l710 320v-156l-503 -223l503 -223v-154z" />
<glyph unicode="=" horiz-adv-x="846" d="M68 156v151h710v-151h-710zM68 430v154h710v-154h-710z" />
<glyph unicode="&#x3e;" horiz-adv-x="878" d="M84 -2v154l502 223l-502 223v156l710 -320v-118z" />
<glyph unicode="?" horiz-adv-x="887" d="M82 608q3 71 21.5 125t48.5 92.5t68 64.5t79 41t84 21t82 6q72 0 135.5 -18t111.5 -55t76.5 -92t28.5 -127q0 -49 -15.5 -86t-40.5 -65.5t-57 -51.5t-63 -43q-22 -16 -42.5 -30t-36.5 -32t-26 -41q-12 -23 -12 -55h-184q0 42 7.5 75t20 59t28.5 46t34 36t38 30l40 28 q22 14 42 27t35 27.5t24 33t9 44.5q0 34 -12 58.5t-34 40.5t-51 23.5t-62 7.5q-41 0 -74 -12.5t-57.5 -37t-39 -59.5t-16.5 -81h-190zM326 -2v196h212v-196h-212z" />
<glyph unicode="@" horiz-adv-x="1061" d="M47 477q0 68 18.5 131.5t51.5 117.5t79 98.5t102 76t121 48.5t134 17q63 0 122 -14t110 -40t94 -62.5t73 -82t47 -99.5t17 -113q0 -56 -16.5 -103t-44 -85t-62.5 -66.5t-73.5 -47.5t-76.5 -27.5t-71 -6.5q-26 2 -50 12.5t-40 30.5q-28 -22 -61 -34.5t-67 -12.5 q-40 0 -74 15.5t-59 42.5t-39 64t-14 79q0 41 9.5 81.5t27 77.5t43 68t58 54.5t71 37t82.5 13.5q16 0 32.5 -3t31.5 -9t28.5 -16t24.5 -26l14 37h118q-22 26 -50.5 45.5t-61 32.5t-68.5 20t-73 7q-52 0 -98.5 -13t-86.5 -37t-72 -58t-55 -74t-36 -87t-13 -98 q0 -50 13.5 -96.5t37.5 -87.5t57.5 -74.5t74 -57.5t87 -37.5t95.5 -13.5q42 0 84.5 7t82 21t75 38t63.5 58h156q-43 -66 -96.5 -113t-113 -77t-124 -44t-129.5 -14q-72 0 -137.5 17t-122 49t-103 77t-79 101t-50.5 120t-18 135zM408 422q0 -17 5 -31.5t14 -24.5t22.5 -16 t29.5 -6q20 0 38 9.5t34 25.5t29 36.5t22.5 43.5t14.5 46t5 44q0 14 -5 27.5t-13 24t-19.5 17t-23.5 6.5q-36 0 -64 -19.5t-48 -50t-30.5 -65.5t-10.5 -67zM707.5 347q0.5 -9 3.5 -14t10 -5q24 0 50.5 17t48.5 47.5t36 70.5t14 86q0 53 -14 96q-16 43 -42 77l-102 -337 q-2 -9 -3.5 -19t-1 -19z" />
<glyph unicode="A" horiz-adv-x="1093" d="M-4 0l450 944h201l451 -944h-246l-114 252h-392l-114 -252h-236zM434 440h220l-114 252z" />
<glyph unicode="B" horiz-adv-x="1030" d="M82 0v944h540q84 0 145 -17t100 -50t58 -81t19 -108q0 -64 -22 -107.5t-60 -72.5q58 -30 89.5 -83t31.5 -136q0 -54 -19.5 -105.5t-59.5 -92.5t-102 -66t-148 -25h-572zM297 188h321q44 0 73.5 9t46 24t23.5 34.5t7 39.5q0 19 -6.5 37.5t-22.5 33t-42.5 23.5t-68.5 9 h-331v-210zM297 584h321q28 0 49 6.5t35 18t20.5 27.5t6.5 34q0 20 -6.5 36t-20.5 28t-36 18t-54 6h-315v-174z" />
<glyph unicode="C" horiz-adv-x="1077" d="M30 475q0 68 15 130.5t45 117.5t74 99t101 76t128 49t154 17q46 0 97.5 -6.5t102.5 -22.5t99 -42.5t87.5 -66.5t67.5 -94q27 -55 39 -126h-216q-12 38 -35.5 70t-57 55t-77 36t-97.5 13q-72 0 -129.5 -20t-98.5 -60t-63 -99.5t-22 -139.5q0 -54 16 -107.5t53 -95.5 t95 -68t141 -26q47 0 89 11t77 34t63 59t46 88h212q-16 -80 -57 -148.5t-104 -119t-146 -79.5t-182 -29q-62 0 -124 11t-119.5 35t-107.5 63t-86.5 94t-58 127.5t-21.5 164.5z" />
<glyph unicode="D" horiz-adv-x="1044" d="M82 0v944h498q113 0 195.5 -33t136.5 -94t80 -146t26 -187q0 -65 -10.5 -126.5t-33 -115.5t-57 -98t-83 -76t-110.5 -50t-140 -18h-502zM297 188h285q46 0 80.5 12.5t59 33.5t40.5 49.5t25 61t13 67.5q3 36 3 70t-4.5 67t-15 64t-29 57.5t-46 46t-66 30.5t-89.5 11h-256 v-570z" />
<glyph unicode="E" horiz-adv-x="934" d="M82 0v944h809v-186h-594v-180h573v-185h-573v-205h604v-188h-819z" />
<glyph unicode="F" horiz-adv-x="862" d="M82 0v944h760v-186h-545v-180h518v-189h-518v-389h-215z" />
<glyph unicode="G" horiz-adv-x="1147" d="M39 459q0 89 20.5 161t56.5 128t85 97t106.5 67.5t120 39t125.5 12.5q50 0 101.5 -5.5t101.5 -20t96 -39.5t86 -64t70 -93t49 -126h-219q-17 42 -41.5 72.5t-58.5 50t-78 29.5t-99 10q-79 0 -137 -25.5t-96 -68t-56 -98.5t-18 -117q0 -82 25 -139.5t68.5 -93.5t100 -53 t120.5 -17q56 0 104 14.5t85.5 40t63 60.5t37.5 75h-290v180h497v-536h-168l-19 84q-26 -22 -56 -41t-69 -33t-87.5 -22t-108.5 -8q-98 0 -174.5 21t-133.5 57t-97 84t-65 101t-36.5 108.5t-11.5 107.5z" />
<glyph unicode="H" horiz-adv-x="1126" d="M78 0v944h215v-348h541v348h214v-944h-214v408h-541v-408h-215z" />
<glyph unicode="I" horiz-adv-x="401" d="M94 0v944h213v-944h-213z" />
<glyph unicode="J" horiz-adv-x="790" d="M10 370h207v-79q0 -70 38 -103q37 -32 105 -32q65 0 99.5 35t34.5 98v655h214v-628q0 -96 -26 -160.5t-72.5 -104t-109 -56.5t-136.5 -17q-64 0 -113.5 11t-86.5 30t-62.5 45t-43 56t-27 63t-14.5 66t-6 64t-1 57z" />
<glyph unicode="K" horiz-adv-x="1016" d="M82 0v944h217v-389l434 389h299l-456 -404l464 -540h-266l-354 414l-121 -109v-305h-217z" />
<glyph unicode="L" horiz-adv-x="833" d="M82 0v944h215v-758h529v-186h-744z" />
<glyph unicode="M" horiz-adv-x="1347" d="M82 0v944h254l338 -672l338 672h254v-944h-216v588l-292 -588h-170l-291 576v-576h-215z" />
<glyph unicode="N" horiz-adv-x="1118" d="M82 0v944h217l520 -626v626h217v-944h-217l-520 626v-626h-217z" />
<glyph unicode="O" horiz-adv-x="1147" d="M28 473q0 60 13 120.5t40.5 114.5t70.5 101t103.5 82t139.5 54t179 19t178.5 -19t139 -54t103.5 -82t70 -101t40 -114t13 -121t-13 -121t-40 -115t-70 -102t-103.5 -81.5t-139.5 -53.5q-78 -20 -178 -20t-179 19.5t-139.5 54t-103.5 81.5t-70.5 102t-40.5 115t-13 121z M244 473q0 -76 25 -134.5t69.5 -97t105 -58t130.5 -19.5t130 19.5t104 58t69.5 97t25.5 134.5t-25.5 133.5t-69.5 96.5t-104 58t-130 19t-130.5 -19t-105 -58t-69.5 -96.5t-25 -133.5z" />
<glyph unicode="P" horiz-adv-x="950" d="M82 0v944h506q85 0 149.5 -19t108.5 -55t66 -90t22 -122q0 -70 -22 -128t-65 -98.5t-106 -63t-145 -22.5h-297v-346h-217zM299 534h281q39 0 65.5 10t43 26t23.5 38t7 46q0 23 -7.5 42t-21.5 32.5t-36 21.5t-50 8h-305v-224z" />
<glyph unicode="Q" horiz-adv-x="1147" d="M28 473q0 60 13 120.5t40.5 114.5t70.5 101t103.5 82t139.5 54t179 19t178.5 -19t139 -54t103.5 -82t70 -101t40 -114t13 -121q0 -48 -7.5 -94.5t-24 -91t-41.5 -85.5t-59 -76l116 -98l-117 -142l-162 135q-52 -20 -114 -31q-61 -10 -135 -10q-100 0 -179 19.5t-139.5 54 t-103.5 81.5t-70.5 102t-40.5 115t-13 121zM244 473q0 -76 25 -134.5t69.5 -97t105 -58t130.5 -19.5q18 0 36 2l36 4l-74 62l118 143l137 -115q36 38 56 91.5t20 121.5q0 76 -25.5 133.5t-69.5 96.5t-104 58t-130 19t-130.5 -19t-105 -58t-69.5 -96.5t-25 -133.5z" />
<glyph unicode="R" horiz-adv-x="1038" d="M82 0v944h600q53 0 95.5 -11t74.5 -30t54.5 -45t37 -56t21 -63t6.5 -65q0 -68 -25.5 -123t-75.5 -90q18 -14 32.5 -33.5t25 -43.5t16.5 -51t6 -57q2 -38 5 -67t6 -53t9 -44t15 -38t23 -36q12 -18 32 -38h-235q-20 22 -30.5 46t-16.5 49t-8 52t-2 53q-2 48 -11 81t-26 52 t-42 27t-59 8h-311v-368h-217zM299 555h332q38 0 62 9.5t37.5 24.5t19.5 33t6 34q0 22 -7.5 41t-22.5 32t-37.5 21t-53.5 8h-336v-203z" />
<glyph unicode="S" horiz-adv-x="927" d="M20 342h214q1 -40 11.5 -68t29 -47.5t43 -31.5t52.5 -18.5t58 -8.5t60 -2q46 0 83.5 7t64 21t41.5 34t15 46q0 20 -10.5 37t-29 29.5t-44 22t-55.5 14.5l-197 33q-32 5 -66 12.5t-68.5 20t-66 31t-55 46.5t-37.5 65t-14 87q0 68 26.5 122t77 92t125.5 58q74 20 172 20 q50 0 101 -5.5t97 -19.5t86.5 -37.5t71.5 -59.5t50.5 -86t23.5 -117h-210q-6 26 -17 50.5t-36 44.5t-69 32t-116 12q-30 0 -60 -6t-54 -18t-39 -33t-15 -49q0 -12 6 -24t19 -22t35 -18t55 -14l219 -37q20 -4 51 -10.5t65 -18t69 -30t62.5 -46.5t45 -67t17.5 -90 q0 -63 -18 -111t-49 -83t-73 -58t-89.5 -37.5t-99 -20t-102.5 -5.5q-56 0 -112.5 6t-107 21t-94 41.5t-75.5 67t-50 96t-18 130.5z" />
<glyph unicode="T" horiz-adv-x="858" d="M6 758v186h846v-186h-318v-758h-212v758h-316z" />
<glyph unicode="U" horiz-adv-x="1059" d="M82 364v580h217v-594q0 -50 15.5 -85.5t45.5 -58t73 -33.5t97 -11t97 11t73 33.5t46 58t16 85.5v594h215v-580q0 -96 -27 -168t-82 -121t-139 -73q-85 -24 -199 -24t-198 24t-140 73t-83 121t-27 168z" />
<glyph unicode="V" horiz-adv-x="1077" d="M4 944h240l301 -674l295 674h233l-434 -944h-195z" />
<glyph unicode="W" horiz-adv-x="1532" d="M4 944h234l202 -622l220 622h212l226 -620l202 620h228l-334 -944h-205l-229 639l-226 -639h-204z" />
<glyph unicode="X" horiz-adv-x="1022" d="M4 0l364 482l-350 462h273l221 -309l223 309h271l-361 -460l373 -484h-280l-234 322l-232 -322h-268z" />
<glyph unicode="Y" horiz-adv-x="1057" d="M4 944h272l254 -368l258 368h264l-417 -555v-389h-213v383z" />
<glyph unicode="Z" horiz-adv-x="995" d="M41 0v168l596 590h-551v186h858v-164l-596 -592h606v-188h-913z" />
<glyph unicode="[" horiz-adv-x="542" d="M125 -270v1232h336v-168h-147v-896h147v-168h-336z" />
<glyph unicode="\" horiz-adv-x="577" d="M-12 964h206l394 -1001h-203z" />
<glyph unicode="]" horiz-adv-x="542" d="M82 -102h148v896h-148v168h336v-1232h-336v168z" />
<glyph unicode="^" horiz-adv-x="801" d="M47 360l289 590h125l295 -590h-158l-196 412l-199 -412h-156z" />
<glyph unicode="_" horiz-adv-x="667" d="M0 -76h668v-127h-668v127z" />
<glyph unicode="`" horiz-adv-x="467" d="M47 1000h235l140 -228h-162z" />
<glyph unicode="a" horiz-adv-x="882" d="M41 198q0 52 16.5 90t53.5 65t98 44.5t151 26.5l140 14q40 4 63 15t23 35q0 22 -13 37t-34 24t-49 12.5t-60 3.5q-34 0 -64 -4t-53 -16.5t-37 -34.5t-16 -60h-192q8 79 35 131.5t73 83.5t111 43.5t149 12.5q38 0 78.5 -3.5t78 -12.5t71 -25t58.5 -40t39.5 -57.5 t14.5 -78.5v-340q0 -12 6 -16t16 -4h7t8 1t16 4t31 9v-158q-20 -4 -36.5 -6.5t-30 -4.5t-25.5 -3h-22q-24 0 -45.5 2.5t-38.5 9t-30 18.5q-14 12 -22 29q-24 -17 -55 -30t-65 -22.5t-69 -14t-69 -4.5q-64 0 -112 9.5t-82 26.5t-57 39.5t-36 47.5t-18.5 51t-5.5 50zM242 203 q0 -16 8.5 -28.5t24 -21.5t37.5 -13.5t48 -4.5q48 0 89 10.5t71.5 29.5t47.5 45q18 26 18 58v29q-18 -6 -38 -11q-20 -4 -50 -7l-138 -15q-58 -4 -88 -21t-30 -50z" />
<glyph unicode="b" horiz-adv-x="925" d="M72 0v952h200v-307q52 42 112 61t120 19q82 0 152 -25.5t121 -73.5t80.5 -118t29.5 -158q0 -90 -29.5 -159t-81 -116t-123 -71t-155.5 -24q-38 0 -71 6t-61 16t-52 25t-44 33v-60h-198zM262 350q0 -38 12 -74t37 -64t64.5 -45t95.5 -17t95.5 17t64.5 45t37 64t12 74 q0 48 -14.5 86t-41.5 64t-65.5 40.5t-87.5 14.5q-48 0 -87 -14.5t-66 -40.5t-41.5 -64t-14.5 -86z" />
<glyph unicode="c" horiz-adv-x="856" d="M41 342q0 51 11 99.5t33 90.5t55.5 77t77 60t98 38.5t120.5 13.5q73 0 138.5 -17.5t116.5 -52.5t86 -88t47 -125h-210q-4 26 -18 48t-36 37t-50 23q-30 9 -64 9q-52 0 -90 -16.5t-62 -45.5t-36 -67t-12 -80q0 -43 12 -80.5t37 -65.5t63 -44q36 -16 88 -16q66 0 112 33 t62 101h210q-22 -84 -60.5 -142t-89 -93t-111.5 -50t-131 -15q-72 0 -129.5 15t-101.5 41t-75.5 61t-51.5 76t-29.5 86t-9.5 89z" />
<glyph unicode="d" horiz-adv-x="925" d="M39 350q0 88 29.5 158t80.5 118t121 73.5t152 25.5q60 0 119 -19t113 -61v307h200v-952h-198v60q-20 -18 -44 -33t-52 -25t-61 -16t-71 -6q-88 0 -159.5 24t-122.5 71t-79 116t-28 159zM246 350q0 -38 11.5 -74t37 -64t64.5 -45t95 -17t96 17t65 45t37 64t12 74 q0 48 -15 86t-42 64t-65 40q-40 15 -88 15t-86.5 -14.5t-65.5 -40.5t-41.5 -64t-14.5 -86z" />
<glyph unicode="e" horiz-adv-x="903" d="M41 346q0 48 11.5 95t34.5 89t57.5 77t81.5 60t106 39.5t131 14.5q48 0 97.5 -10.5t94 -32.5t83 -56t66.5 -83t43 -113q13 -56 13 -127v-19h-608q9 -32 29.5 -57t48 -43t60 -27t64.5 -9q24 0 51 2.5t53 12t49.5 27.5t39.5 50h211q-32 -74 -77 -125t-97.5 -81t-109 -43 t-111.5 -13q-108 0 -187.5 30t-131.5 81t-77.5 118.5t-25.5 142.5zM262 430h379q-10 30 -28 53t-42.5 38t-53.5 22.5t-63 7.5q-32 0 -62 -8t-55 -23.5t-44 -38t-31 -51.5z" />
<glyph unicode="f" horiz-adv-x="483" d="M-6 534v158h133v82q0 54 16.5 91t47.5 59t76 32t101 10q30 0 60 -4t62 -12v-156q-21 2 -34.5 4t-22.5 2.5t-15 0.5h-10q-44 0 -63 -7t-19 -24v-78h164v-158h-164v-534h-199v534h-133z" />
<glyph unicode="g" horiz-adv-x="925" d="M41 342q0 66 15.5 118t42.5 93t64 70t80 47.5t91.5 27t97.5 8.5q42 0 75 -5t61 -15t51 -25t45 -35v66h200v-659q0 -94 -23.5 -161.5t-74.5 -110.5t-131.5 -63t-194.5 -20q-40 0 -81 3.5t-79.5 13.5t-73.5 28.5t-63.5 47.5t-48.5 72t-28 101h194q8 -30 25 -50t41 -32 t56 -17t72 -5q58 0 98.5 13t65 35t35.5 50t11 60v72q-26 -26 -52 -43t-54 -27t-58.5 -14t-63.5 -4q-50 0 -98 8.5t-92 27t-82 47t-65 68.5t-42.5 92t-15.5 117zM248 342q0 -42 14 -77t40 -60t65 -39t87 -14q50 0 89 14t66 39t41 60t14 77t-14 78t-41 62t-66 40t-89 14 q-49 0 -87.5 -14t-64.5 -40t-40 -62t-14 -78z" />
<glyph unicode="h" horiz-adv-x="880" d="M72 0v952h200v-324q23 24 52.5 42t61.5 30t68 18q34 7 70 7q54 0 106 -15.5t91.5 -47.5t63.5 -80t24 -113v-469h-201v442q0 29 -11 51t-30.5 36.5t-45 22t-52.5 7.5q-34 0 -68.5 -10t-62.5 -29.5t-47 -49.5t-21 -68v-402h-198z" />
<glyph unicode="i" horiz-adv-x="362" d="M82 0v692h198v-692h-198zM82 758v194h198v-194h-198z" />
<glyph unicode="j" horiz-adv-x="364" d="M-64 -119q10 -2 25 -4.5t31 -2.5t31.5 3t28 9t20.5 18q9 10 10 28v760h200v-750q0 -64 -12 -109t-41 -74t-76 -42.5t-118 -13.5q-30 0 -56.5 2.5t-42.5 3.5v172zM82 758v194h200v-194h-200z" />
<glyph unicode="k" horiz-adv-x="848" d="M72 0v952h200v-498l287 238h275l-338 -270l360 -422h-256l-258 303l-70 -57v-246h-200z" />
<glyph unicode="l" horiz-adv-x="364" d="M82 0v952h200v-952h-200z" />
<glyph unicode="m" horiz-adv-x="1366" d="M74 0v692h198v-74q43 44 103 67t127 23q62 0 122 -24t111 -72q24 22 52 41t61 33t71.5 21.5t82.5 7.5q20 0 49 -3.5t61 -13.5t65 -28t59 -47t42 -70t16 -97v-456h-200v426q0 30 -12 53t-32 37.5t-45 21.5t-51 7q-30 0 -59.5 -9t-54 -26.5t-40.5 -43.5t-18 -58v-408h-198 v426q0 30 -10.5 53t-28 37.5t-39.5 21.5t-47 7q-32 0 -65.5 -10.5t-60.5 -31.5t-44 -50t-17 -66v-387h-198z" />
<glyph unicode="n" horiz-adv-x="878" d="M72 0v692h198v-74q24 24 54 43t62 31t67 18.5t69 6.5q53 -1 103 -17t89.5 -48.5t65 -81t29.5 -114.5v-456h-201v430q0 30 -10 53t-28 37.5t-41.5 21.5t-49.5 7q-34 0 -70 -9.5t-65.5 -29.5t-49.5 -50.5t-24 -72.5v-387h-198z" />
<glyph unicode="o" horiz-adv-x="925" d="M41 346q0 76 25.5 144t77.5 119t132 81.5t187 30.5q108 0 187 -30.5t131.5 -81.5t77.5 -119t25 -144q0 -75 -25 -142.5t-77.5 -118.5t-132 -81t-186.5 -30q-108 0 -187.5 30t-131.5 81t-77.5 118.5t-25.5 142.5zM248 346q0 -37 11 -73.5t36.5 -66.5t66.5 -48t101 -18 t101.5 18t66.5 48t36 66.5t11 73.5q0 38 -11 75t-36 67t-66 48.5t-102 18.5q-60 0 -101 -18.5t-66.5 -48.5t-36.5 -67t-11 -75z" />
<glyph unicode="p" horiz-adv-x="925" d="M72 -266v958h198v-64q20 18 44 33.5t52 27t60 17.5q34 6 72 6q84 0 155.5 -24t123 -71t81 -116t29.5 -159q0 -88 -29.5 -158t-80.5 -118t-121 -73.5t-152 -25.5q-60 0 -120 19q-60 20 -112 61v-313h-200zM262 342q0 -48 14.5 -86t41.5 -64t65.5 -40.5t87.5 -14.5 q48 0 87 14.5t66 40.5t41.5 64t14.5 86q0 38 -12 74t-37 64t-64.5 45t-95.5 17t-95.5 -17t-64.5 -45t-37 -64t-12 -74z" />
<glyph unicode="q" horiz-adv-x="925" d="M39 342q0 90 29.5 159t81 116t123 71t155.5 24q38 0 71 -6t61 -17.5t52 -27t44 -33.5v64h198v-958h-200v313q-53 -42 -112.5 -61t-119.5 -19q-82 0 -152 25.5t-121 73.5t-80.5 118t-29.5 158zM246 342q0 -48 14.5 -86t41.5 -64t65.5 -40.5t86.5 -14.5t87 14.5t66 40.5 t42 64t15 86q0 38 -12 74t-37 64t-65 45t-96 17t-95 -17t-64.5 -45t-37 -64t-11.5 -74z" />
<glyph unicode="r" horiz-adv-x="561" d="M68 0v692h198v-70q38 44 88.5 64t106.5 20q13 0 24 -0.5t22 -3t22 -5.5t24 -9v-186q-32 14 -61.5 18t-53.5 4q-39 0 -70.5 -11t-54.5 -33t-35 -55t-12 -77v-348h-198z" />
<glyph unicode="s" horiz-adv-x="809" d="M30 244h202q0 -22 8 -42.5t27 -37t53 -26.5q34 -9 84 -9t82 7t51 17.5t26 22.5t7 24q0 8 -5 17.5t-16.5 17.5t-30 14.5t-45.5 10.5l-195 29q-50 8 -91 22.5t-70 39.5t-45 61t-16 84q0 56 23 98t67 70t106.5 42.5t140.5 14.5q92 0 158.5 -18t111 -51.5t68 -82.5t29.5 -110 h-205q-1 24 -11 43.5t-30 33.5t-50 21.5t-71 7.5q-24 0 -49 -3t-45 -10.5t-32.5 -19.5t-12.5 -30q0 -10 3.5 -19t13 -16.5t25.5 -13t40 -9.5l174 -24q72 -9 122 -27.5t82 -45.5t47 -62.5t15 -77.5q0 -64 -25.5 -108.5t-73 -72.5t-115.5 -40t-154 -12q-42 0 -86 3t-84 13 t-76 28t-64 48t-46 74t-22 104z" />
<glyph unicode="t" horiz-adv-x="512" d="M2 530v162h114v216h200v-216h168v-162h-168v-344q0 -20 18 -27t49 -7h18.5t21 1t26.5 4t35 9v-170q-24 -4 -44 -7.5t-37.5 -5.5t-35 -2.5t-37.5 -0.5q-57 0 -97.5 12t-66.5 36t-38 58t-12 76v368h-114z" />
<glyph unicode="u" horiz-adv-x="880" d="M72 236v456h200v-430q0 -31 11 -53.5t28 -36.5t41 -21t50 -7q34 0 70 9t65.5 29t50 50.5t22.5 72.5v387h199v-692h-199v74q-24 -24 -53.5 -43t-62 -31t-66.5 -18q-36 -6 -70 -6q-53 0 -102.5 16t-89.5 48.5t-65 81t-29 114.5z" />
<glyph unicode="v" horiz-adv-x="805" d="M2 692h226l178 -436l178 436h219l-307 -692h-187z" />
<glyph unicode="w" horiz-adv-x="1218" d="M6 692h220l142 -406l138 406h200l142 -410l148 410h216l-274 -692h-190l-146 410l-143 -410h-185z" />
<glyph unicode="x" horiz-adv-x="850" d="M-8 0l303 358l-281 334h260l152 -192l154 192h260l-289 -334l309 -358h-268l-172 217l-172 -217h-256z" />
<glyph unicode="y" horiz-adv-x="819" d="M6 692h226l182 -448l180 448h219l-365 -829q-26 -57 -51 -92t-56 -54t-69 -26t-90 -7q-24 0 -54 2t-62 5v167q4 -1 10 -1.5t13 -1l14 -1t11 -0.5q21 0 41.5 -0.5t39.5 6t38 22.5t35 52l39 80z" />
<glyph unicode="z" horiz-adv-x="805" d="M45 0v148l393 374h-370v170h674v-141l-402 -381h420v-170h-715z" />
<glyph unicode="{" horiz-adv-x="542" d="M49 264v162q22 2 41.5 11t35 24t25 36t9.5 48v205q0 52 16 91t42 66t59 41t65 14h133v-157h-103q-8 0 -12 -6.5t-7 -16.5t-4 -23.5t-1 -27.5v-207q0 -36 -6 -63.5t-17 -49t-25 -37.5t-30 -28q13 -12 27 -29.5t25.5 -40t18.5 -49.5t7 -59v-205q0 -14 1 -28t4 -24.5 t7 -16.5t12 -6h103v-158h-133q-32 0 -65 14t-59 41t-42 67q-16 38 -16 90v206q0 26 -9.5 47t-25 36t-35.5 23.5t-41 9.5z" />
<glyph unicode="|" horiz-adv-x="344" d="M80 -22v988h184v-988h-184z" />
<glyph unicode="}" horiz-adv-x="542" d="M68 -112h102q8 0 13 6t7 16.5t3 24t1 28.5v205q0 32 7.5 59t19 49.5t25.5 40t26 29.5q-16 12 -29.5 28t-24 37.5t-17.5 49t-7 63.5v207q0 14 -1 27.5t-3 23.5t-7 16.5t-13 6.5h-102v157h132q32 0 65 -14t59 -41t42 -67q17 -38 17 -90v-205q0 -26 9.5 -47.5t24.5 -36.5 t35 -24t42 -11v-162q-22 -1 -42 -9.5t-35 -23.5t-24.5 -36t-9.5 -47v-206q0 -52 -16.5 -91t-42.5 -66t-59 -41t-65 -14h-132v158z" />
<glyph unicode="~" horiz-adv-x="796" d="M68 316q20 39 42 64.5t46 41.5t50 22t54 6q20 0 44 -7t49 -17.5t51.5 -23t51 -23.5t46.5 -18t38 -7q24 0 52 32t62 93l75 -127q-22 -38 -44 -64t-45.5 -41t-48.5 -21.5t-53 -6.5q-22 0 -46 7t-48.5 17.5t-49 22.5t-48.5 23t-46 18t-42 7q-24 0 -52 -32t-64 -94z" />
<glyph d="M-1014 920l88 157h578v-157h-666z" />
<glyph unicode="&#xf701;" d="M-1014 920l88 157h578v-157h-666z" />
<glyph d="M-1012 920l86 157h398v121h180v-278h-664z" />
<glyph unicode="&#xf702;" d="M-1012 920l86 157h398v121h180v-278h-664z" />
<glyph d="M-1008 920l82 157h291q0 32 13 59t34.5 47.5t49.5 32t59 11.5q32 0 60.5 -12t48.5 -32.5t32 -49t12 -60.5t-12 -60.5t-32 -48.5t-48.5 -32t-60.5 -12h-529zM-526 1073q0 -18 13 -31.5t34 -13.5q18 0 31.5 13t13.5 32q0 20 -13 33.5t-32 13.5q-20 0 -33.5 -13.5 t-13.5 -33.5z" />
<glyph unicode="&#xf703;" d="M-1008 920l82 157h291q0 32 13 59t34.5 47.5t49.5 32t59 11.5q32 0 60.5 -12t48.5 -32.5t32 -49t12 -60.5t-12 -60.5t-32 -48.5t-48.5 -32t-60.5 -12h-529zM-526 1073q0 -18 13 -31.5t34 -13.5q18 0 31.5 13t13.5 32q0 20 -13 33.5t-32 13.5q-20 0 -33.5 -13.5 t-13.5 -33.5z" />
<glyph d="M-1010 920l82 157h168v121h172v-121h66v121h174v-278h-662z" />
<glyph unicode="&#xf704;" d="M-1010 920l82 157h168v121h172v-121h66v121h174v-278h-662z" />
<glyph d="M-592 920v276h192v-276h-192z" />
<glyph unicode="&#xf705;" d="M-592 920v276h192v-276h-192z" />
<glyph d="M-854 1052v138h226v-110q72 6 110.5 35.5t38.5 74.5h178q0 -53 -21 -101.5t-65 -85.5t-112.5 -59t-164.5 -22h-116v130h-74z" />
<glyph unicode="&#xf706;" d="M-854 1052v138h226v-110q72 6 110.5 35.5t38.5 74.5h178q0 -53 -21 -101.5t-65 -85.5t-112.5 -59t-164.5 -22h-116v130h-74z" />
<glyph d="M-905 928q-4 60 5.5 104.5t28.5 74t47 44.5t60 15q20 0 34.5 -4.5t26 -12t19.5 -17.5t14 -20q9 10 20 20t23.5 17.5t27.5 12t31 4.5q42 0 67 -18t40 -52q6 7 11.5 17.5t10.5 22.5t8 26t1 28h141q0 -42 -13.5 -83.5t-37.5 -77.5t-56 -63q-32 -26 -69 -38h-89q0 18 -1 36 t-3 32t-8 23t-18 9q-16 0 -23.5 -17t-7.5 -49h-101q0 36 -6 51t-22 15q-11 0 -17 -9t-9 -24t-3.5 -33t-0.5 -34h-131z" />
<glyph unicode="&#xf707;" d="M-905 928q-4 60 5.5 104.5t28.5 74t47 44.5t60 15q20 0 34.5 -4.5t26 -12t19.5 -17.5t14 -20q9 10 20 20t23.5 17.5t27.5 12t31 4.5q42 0 67 -18t40 -52q6 7 11.5 17.5t10.5 22.5t8 26t1 28h141q0 -42 -13.5 -83.5t-37.5 -77.5t-56 -63q-32 -26 -69 -38h-89q0 18 -1 36 t-3 32t-8 23t-18 9q-16 0 -23.5 -17t-7.5 -49h-101q0 36 -6 51t-22 15q-11 0 -17 -9t-9 -24t-3.5 -33t-0.5 -34h-131z" />
<glyph d="M-758 1016v150h113v92h180v-92h113v-150h-113v-94h-180v94h-113z" />
<glyph unicode="&#xf708;" d="M-758 1016v150h113v92h180v-92h113v-150h-113v-94h-180v94h-113z" />
<glyph d="M-700 920q0 64 23 115t68 86t110 53.5t147 19.5v-160q-80 0 -119 -28t-39 -86h-190z" />
<glyph unicode="&#xf709;" d="M-700 920q0 64 23 115t68 86t110 53.5t147 19.5v-160q-80 0 -119 -28t-39 -86h-190z" />
<glyph d="M-270 920v276h198v-276h-198z" />
<glyph unicode="&#xf70a;" d="M-270 920v276h198v-276h-198z" />
<glyph d="M-538 1044v154h239v-118q36 3 63.5 13.5t47 26.5t29 36t9.5 42h178q0 -53 -21 -102.5t-65 -88.5t-112.5 -62t-163.5 -23h-131v122h-73z" />
<glyph unicode="&#xf70b;" d="M-538 1044v154h239v-118q36 3 63.5 13.5t47 26.5t29 36t9.5 42h178q0 -53 -21 -102.5t-65 -88.5t-112.5 -62t-163.5 -23h-131v122h-73z" />
<glyph d="M-702 922q-4 62 9 109t36 78t55 47t66 16q20 0 36.5 -6t30 -15t24.5 -20t19 -22q9 11 20.5 22t26.5 20t31 15q18 6 36 6q44 0 77 -20t51 -54q6 7 11.5 17.5t10.5 23t7.5 27t0.5 30.5h160q0 -44 -15 -88t-40.5 -81.5t-60.5 -65.5q-34 -27 -74 -39h-113q0 21 -1.5 38 t-6 29.5t-12 19.5t-17.5 7q-19 0 -28 -18q-10 -18 -10 -46h-107q0 28 -8.5 46t-24.5 18q-13 0 -21.5 -8t-13 -21t-6 -30t-1.5 -35h-148z" />
<glyph unicode="&#xf70c;" d="M-702 922q-4 62 9 109t36 78t55 47t66 16q20 0 36.5 -6t30 -15t24.5 -20t19 -22q9 11 20.5 22t26.5 20t31 15q18 6 36 6q44 0 77 -20t51 -54q6 7 11.5 17.5t10.5 23t7.5 27t0.5 30.5h160q0 -44 -15 -88t-40.5 -81.5t-60.5 -65.5q-34 -27 -74 -39h-113q0 21 -1.5 38 t-6 29.5t-12 19.5t-17.5 7q-19 0 -28 -18q-10 -18 -10 -46h-107q0 28 -8.5 46t-24.5 18q-13 0 -21.5 -8t-13 -21t-6 -30t-1.5 -35h-148z" />
<glyph d="M-385 1020v154h117v96h186v-96h117v-154h-117v-98h-186v98h-117z" />
<glyph unicode="&#xf70d;" d="M-385 1020v154h117v96h186v-96h117v-154h-117v-98h-186v98h-117z" />
<glyph d="M-356 920q0 64 23 115t68 86t110 53.5t147 19.5v-160q-80 0 -119 -28t-39 -86h-190z" />
<glyph unicode="&#xf70e;" d="M-356 920q0 64 23 115t68 86t110 53.5t147 19.5v-160q-80 0 -119 -28t-39 -86h-190z" />
<glyph d="M-666 914v226h180v-71h554v-155h-734z" />
<glyph unicode="&#xf710;" d="M-666 914v226h180v-71h554v-155h-734z" />
<glyph d="M-702 1065q0 37 13.5 69t37 56t55.5 37.5t70 13.5q36 0 68 -13.5t57 -37.5t39 -56t14 -69t-14 -69t-39 -56t-57 -37.5t-68 -13.5q-37 0 -69.5 13.5t-56 37.5t-37 56t-13.5 69zM-582 1065q0 -10 5 -20.5t12.5 -18t17.5 -12.5q11 -4 21 -4q12 0 22 4.5t17 12t11.5 17.5 t4.5 21q0 12 -4.5 21.5t-11.5 17.5t-17 12t-22 4q-10 0 -20.5 -4t-18 -12t-12.5 -17.5t-5 -21.5z" />
<glyph unicode="&#xf711;" d="M-702 1065q0 37 13.5 69t37 56t55.5 37.5t70 13.5q36 0 68 -13.5t57 -37.5t39 -56t14 -69t-14 -69t-39 -56t-57 -37.5t-68 -13.5q-37 0 -69.5 13.5t-56 37.5t-37 56t-13.5 69zM-582 1065q0 -10 5 -20.5t12.5 -18t17.5 -12.5q11 -4 21 -4q12 0 22 4.5t17 12t11.5 17.5 t4.5 21q0 12 -4.5 21.5t-11.5 17.5t-17 12t-22 4q-10 0 -20.5 -4t-18 -12t-12.5 -17.5t-5 -21.5z" />
<glyph d="M-964 1106q0 54 20 95t54 69t76 42.5t85 14.5h451v-145h-437q-24 0 -39 -8t-23.5 -19t-11.5 -23.5t-3 -21.5q0 -8 1.5 -18t6 -18t12.5 -14t20 -6q18 0 30 19q14 19 12 49h142q-2 -31 8 -50q12 -18 30 -18q20 0 30 20q10 18 6 48h152q2 -58 -8.5 -100t-33 -69t-54.5 -39.5 t-74 -12.5q-23 0 -42.5 4.5t-35 12.5t-28.5 18q-12 10 -21 22q-10 -12 -24 -22t-30.5 -18t-36.5 -12.5t-42 -4.5q-38 0 -67 9.5t-51 26t-36 38t-23 44t-12 45t-3 42.5z" />
<glyph unicode="&#xf712;" d="M-964 1106q0 54 20 95t54 69t76 42.5t85 14.5h451v-145h-437q-24 0 -39 -8t-23.5 -19t-11.5 -23.5t-3 -21.5q0 -8 1.5 -18t6 -18t12.5 -14t20 -6q18 0 30 19q14 19 12 49h142q-2 -31 8 -50q12 -18 30 -18q20 0 30 20q10 18 6 48h152q2 -58 -8.5 -100t-33 -69t-54.5 -39.5 t-74 -12.5q-23 0 -42.5 4.5t-35 12.5t-28.5 18q-12 10 -21 22q-10 -12 -24 -22t-30.5 -18t-36.5 -12.5t-42 -4.5q-38 0 -67 9.5t-51 26t-36 38t-23 44t-12 45t-3 42.5z" />
<glyph d="M-526 1290v262h178v-262h-178z" />
<glyph unicode="&#xf713;" d="M-526 1290v262h178v-262h-178z" />
<glyph d="M-824 1413v145h234v-120q42 2 71.5 12t48 26t27.5 37t9 45h172q0 -52 -21 -100.5t-65 -86t-112 -60.5t-162 -23h-132v125h-70z" />
<glyph unicode="&#xf714;" d="M-824 1413v145h234v-120q42 2 71.5 12t48 26t27.5 37t9 45h172q0 -52 -21 -100.5t-65 -86t-112 -60.5t-162 -23h-132v125h-70z" />
<glyph d="M-803 1288q-4 60 7.5 106t32.5 77t51 46t63 15q19 0 34 -5t27 -13t21 -18q9 -12 16 -22q9 10 20 21t24 19t28 13t33 5q44 0 73 -20t45 -54q5 7 11 17.5t10.5 23.5t6.5 27t1 28h155q0 -42 -14.5 -84.5t-39.5 -79t-58.5 -63.5t-71.5 -39h-108q0 21 -1 38t-5 29t-10 18.5 t-17 6.5q-12 0 -21.5 -13t-9.5 -44h-98q0 32 -8 44.5t-21 12.5q-12 0 -19.5 -7t-10.5 -20t-3.5 -30t-0.5 -35h-142z" />
<glyph unicode="&#xf715;" d="M-803 1288q-4 60 7.5 106t32.5 77t51 46t63 15q19 0 34 -5t27 -13t21 -18q9 -12 16 -22q9 10 20 21t24 19t28 13t33 5q44 0 73 -20t45 -54q5 7 11 17.5t10.5 23.5t6.5 27t1 28h155q0 -42 -14.5 -84.5t-39.5 -79t-58.5 -63.5t-71.5 -39h-108q0 21 -1 38t-5 29t-10 18.5 t-17 6.5q-12 0 -21.5 -13t-9.5 -44h-98q0 32 -8 44.5t-21 12.5q-12 0 -19.5 -7t-10.5 -20t-3.5 -30t-0.5 -35h-142z" />
<glyph d="M-649 1388v152h123v100h178v-100h122v-152h-122v-100h-178v100h-123z" />
<glyph unicode="&#xf716;" d="M-649 1388v152h123v100h178v-100h122v-152h-122v-100h-178v100h-123z" />
<glyph d="M-534 1208q0 62 21 111t63 83.5t103 53t140 18.5v-151q-40 0 -68.5 -7t-46.5 -21.5t-26 -35.5t-8 -51h-178z" />
<glyph unicode="&#xf717;" d="M-534 1208q0 62 21 111t63 83.5t103 53t140 18.5v-151q-40 0 -68.5 -7t-46.5 -21.5t-26 -35.5t-8 -51h-178z" />
<glyph unicode="&#xa2;" horiz-adv-x="887" d="M49 348q0 72 21.5 136t64.5 114.5t107 83t149 41.5v119h113v-119q62 -6 117 -26.5t98 -55.5t73 -84t40 -113h-210q-8 42 -38 72t-80 39v-405q46 11 78 43q32 31 46 87h210q-20 -76 -53 -129.5t-75.5 -89t-94.5 -54.5t-111 -25v-119h-113v119q-62 6 -111.5 23.5t-87.5 44 t-65 61.5t-44 74t-25.5 80t-8.5 83zM254 352q0 -36 8 -68t25 -58t43 -45t61 -27v399q-36 -9 -62 -28t-42.5 -46t-24.5 -59.5t-8 -67.5z" />
<glyph unicode="&#xa3;" horiz-adv-x="887" d="M22 114q76 44 113 94q37 52 37 106q0 17 -4 34q-4 18 -14 35h-124v149h60q-10 28 -14 55t-4 58q0 37 10 74t31.5 71.5t54 64.5t76.5 52t100 34.5t125 12.5q93 0 165 -24.5t121.5 -71t75 -113.5t25.5 -151h-211q-2 38 -13.5 71.5t-34.5 58t-57 38.5t-81 14q-41 0 -74 -11 t-56 -30.5t-36 -47.5q-13 -29 -13 -63q0 -16 6 -40q5 -26 19 -52h269v-149h-206q3 -12 6 -29.5t3 -29.5q0 -28 -13 -62q-12 -34 -36 -66q33 0 67.5 -6.5t70.5 -14.5t71 -14.5t69 -6.5t85.5 22t113.5 64l57 -168q-34 -26 -67 -44t-65 -29t-62 -15t-60 -4q-38 0 -74.5 7 t-73.5 16t-75 16t-78 7q-28 0 -56.5 -3t-54.5 -10t-49 -17t-39 -24z" />
<glyph unicode="&#xa5;" horiz-adv-x="1057" d="M4 944h272l254 -368l258 368h264l-312 -416h159v-139h-264v-75h264v-142h-264v-172h-213v172h-262v142h262v75h-262v139h158z" />
<glyph unicode="&#xa9;" horiz-adv-x="1061" d="M35 473q0 74 18.5 139t51.5 120t79 98.5t101 73.5t117 46t128 16t128 -16t117 -46t101 -73.5t79.5 -98.5t52 -120.5t18.5 -138.5q0 -74 -18.5 -139.5t-52 -120.5t-79.5 -99t-101 -74t-117 -46t-128 -16t-128 16t-117 46t-101 74t-79 99t-51.5 120.5t-18.5 139.5zM166 473 q0 -53 13 -101.5t36.5 -90t57 -74.5t73.5 -57t87 -37t97 -13t97 13t87 37t74 57t57.5 74.5t36.5 89.5t13 102q0 52 -13 100.5t-36.5 89.5t-57.5 74.5t-74 57t-87 36.5t-97 13q-51 0 -97.5 -13t-86.5 -36.5t-73.5 -57t-57 -74.5t-36.5 -89t-13 -101zM270 467q0 63 19 117 t54 93.5t85 62t114 22.5q44 0 84 -14t71 -41t52 -67t29 -91h-118q-6 20 -18 37.5t-28 30t-35 19.5t-41 7q-34 0 -61 -13.5t-46 -37t-28.5 -56t-9.5 -69.5q0 -36 10.5 -67.5t29.5 -55.5t47 -38.5t62 -14.5q22 0 41 7.5t34.5 21.5t26.5 32q12 19 16 41h122q-10 -52 -32 -92 t-53 -67.5t-70 -42.5t-82 -15q-62 0 -112.5 22t-86.5 61t-56 92t-20 116z" />
<glyph unicode="&#xab;" horiz-adv-x="760" d="M84 289v157l278 208v-187l-141 -99l141 -100v-186zM398 289v157l278 208v-187l-142 -99l142 -100v-186z" />
<glyph unicode="&#xad;" horiz-adv-x="755" d="M68 293v151h620v-151h-620z" />
<glyph unicode="&#xae;" horiz-adv-x="1061" d="M35 473q0 74 18.5 139t51.5 120t79 98.5t101 73.5t117 46t128 16t128 -16t117 -46t101 -73.5t79.5 -98.5t52 -120.5t18.5 -138.5q0 -74 -18.5 -139.5t-52 -120.5t-79.5 -99t-101 -74t-117 -46t-128 -16t-128 16t-117 46t-101 74t-79 99t-51.5 120.5t-18.5 139.5zM166 473 q0 -53 13 -101.5t36.5 -90t57 -74.5t73.5 -57t87 -37t97 -13t97 13t87 37t74 57t57.5 74.5t36.5 89.5t13 102q0 52 -13 100.5t-36.5 89.5t-57.5 74.5t-74 57t-87 36.5t-97 13q-51 0 -97.5 -13t-86.5 -36.5t-73.5 -57t-57 -74.5t-36.5 -89t-13 -101zM334 215v520h215 q98 0 145 -39q48 -38 48 -120q0 -64 -29 -102t-80 -54l131 -205h-140l-124 191h-39v-191h-127zM461 514h51q21 0 39.5 2t33.5 8t23 19t8 35q0 14 -7 23.5t-19 15t-26 7.5q-16 2 -30 2h-73v-112z" />
<glyph unicode="&#xbb;" horiz-adv-x="760" d="M84 82v186l144 100l-144 99v187l278 -208v-157zM398 82v186l140 98l-140 101v187l278 -208v-157z" />
<glyph unicode="&#xbc;" horiz-adv-x="1325" d="M53 719v111h29q44 0 71 10.5t41.5 26t20 32.5t6.5 29h115v-566h-133v384q-26 -16 -65.5 -21.5t-84.5 -5.5zM274 -20l520 948h136l-522 -948h-134zM746 116v101l315 351h107v-338h90v-114h-90v-116h-128v116h-294zM897 230h143v155z" />
<glyph unicode="&#xbd;" horiz-adv-x="1325" d="M53 719v111h29q44 0 71 10.5t41.5 26t20 32.5t6.5 29h115v-566h-133v384q-26 -16 -65.5 -21.5t-84.5 -5.5zM266 -20l520 948h136l-522 -948h-134zM768 0q3 58 24.5 100.5t52.5 73t70 52.5t76 40q26 12 51 24.5t44 27t30.5 31.5t11.5 40q0 20 -8 33.5t-22 22.5t-32 13.5 t-38 4.5q-28 0 -49 -9t-35.5 -24t-22 -34.5t-7.5 -41.5h-128q0 48 14 88.5t44 70t76 46.5t110 17q60 0 104 -15t73 -40t43 -59t14 -73q0 -44 -18 -77.5t-46 -58.5t-63 -44t-70 -35q-25 -14 -51 -26.5t-43 -26.5h291v-121h-496z" />
<glyph unicode="&#xbe;" horiz-adv-x="1325" d="M39 559h129q2 -30 11 -48.5t24.5 -29.5t37.5 -14.5t50 -3.5q57 0 85 18.5t28 48.5q0 18 -8 33t-23 25t-36 15t-46 5h-23v104h31q40 0 59 17t19 43q0 16 -7.5 26.5t-20.5 16.5t-29 9q-18 2 -36 2q-27 0 -45 -6t-29.5 -18t-17.5 -29t-8 -40h-126q2 54 19 92.5t47 63t72 36 t90 11.5q60 0 104 -13t71 -35.5t40 -52t13 -61.5q0 -31 -13 -60.5t-42 -47.5q18 -8 32.5 -21.5t25 -30t16 -34.5t5.5 -38q0 -16 -3 -36t-12 -41t-25 -41t-42.5 -36t-64.5 -26t-90 -10q-12 0 -29.5 1t-37.5 3t-43 7t-44 15t-41 25t-35 37t-23.5 51t-8.5 68zM358 -18l518 946 h140l-520 -946h-138zM740 119v100l321 351h105v-338h90v-113h-90v-119h-130v119h-296zM893 232h143v155z" />
<glyph unicode="&#xd7;" horiz-adv-x="796" d="M66 135l231 229l-231 232l102 102l230 -231l230 231l103 -102l-231 -232l231 -229l-103 -102l-230 231l-230 -231z" />
<glyph unicode="&#xf7;" horiz-adv-x="846" d="M68 293v151h710v-151h-710zM309 94q0 23 9.5 44t25 36.5t36.5 25t44 9.5q22 0 42.5 -9.5t36 -25t24.5 -36.5t9 -44q0 -22 -9 -42t-24.5 -35t-36 -24t-42.5 -9q-23 0 -44 9t-36.5 24t-25 35t-9.5 42zM309 643q0 22 9.5 42.5t25 36t36.5 25t44 9.5q22 0 42.5 -9.5t36 -25 t24.5 -35.5t9 -43t-9 -44t-24.5 -36.5t-36 -25t-42.5 -9.5q-23 0 -44 9.5t-36.5 25t-25 36.5t-9.5 44z" />
<glyph unicode="&#xe01;" horiz-adv-x="993" d="M18 516q33 74 83.5 129t112.5 91t134 54.5t150 18.5q52 0 103 -7.5t98 -24.5t88 -44t71 -64t47 -86.5t17 -111.5v-471h-210v461q0 39 -14 71t-42 54t-67.5 34.5t-90.5 12.5q-32 0 -65 -5.5t-63.5 -17.5t-57.5 -28q-27 -18 -48 -40q26 -23 41 -62.5t15 -100.5v-379h-208 v396q0 23 -9 41.5t-23.5 34t-31 26.5t-30.5 18z" />
<glyph unicode="&#xe02;" horiz-adv-x="839" d="M10 624v168h272l152 -520l148 520h214l-235 -792h-262l-183 624h-106z" />
<glyph unicode="&#xe03;" horiz-adv-x="862" d="M64 792h184q0 -14 2 -28.5t7.5 -27t14 -20.5t19.5 -8q13 0 22 7.5t14.5 19.5t8.5 27q2 14 2 30h194v-151q0 -34 -8 -58.5t-24.5 -47.5t-43 -47.5t-63.5 -57.5q-14 -13 -25.5 -24.5t-20.5 -23.5t-14 -24t-5 -28v-48q0 -30 11 -52.5t29 -38t41 -23.5t47 -8q23 0 46.5 6 t41.5 19.5t30 35.5q12 21 12 53v518h204v-532q0 -48 -14 -87t-38 -69t-56 -52.5t-69 -37t-77 -21.5t-80 -7t-81 7.5t-78.5 23t-70.5 38.5t-57.5 53t-38.5 68t-14 84v35q0 35 6.5 62t18 49t27.5 40t36 36t42.5 37t46.5 42q-6 -2 -13.5 -2h-15.5q-15 0 -36 3t-43.5 12t-44 25 t-39 42t-27.5 63.5t-10 87.5z" />
<glyph unicode="&#xe04;" horiz-adv-x="989" d="M72 0v471q0 60 17 107.5t47 85.5t70 65t87 45t98 26.5t103 8.5t103 -8.5t98 -26.5t88 -45t71 -65t47 -86t17 -107v-471h-208v473q0 34 -14 63.5t-42 51t-68 33.5t-92 12t-92.5 -12t-68 -33.5t-41.5 -50.5t-14 -64v-86q26 32 52 53t58 33.5t72 17.5t91 5v-164 q-70 0 -121.5 -14.5t-85.5 -42t-50 -67.5t-16 -92v-116h-206z" />
<glyph unicode="&#xe05;" horiz-adv-x="989" d="M72 0v492q0 72 26.5 126t71 92t103.5 60t123 28l98 -88l98 88q64 -6 123 -28t104 -60t72 -92t27 -126v-492h-208v500q0 17 -5.5 34.5t-15 32.5t-22 28t-26.5 19l-101 -78q-22 -16 -47 -15t-47 17l-98 76q-14 -7 -26.5 -19t-22 -27.5t-15.5 -32.5t-6 -35v-140q26 32 52 53 t57.5 34t71 17.5t90.5 4.5v-164q-70 0 -121.5 -14.5t-84.5 -42.5t-49 -67.5t-16 -90.5v-90h-206z" />
<glyph unicode="&#xe06;" horiz-adv-x="983" d="M26 792h187q0 -14 2.5 -28.5t7.5 -27t13 -20.5t20 -8q13 0 22 7.5t14.5 19.5t7.5 27q3 14 3 30h193v-155q0 -34 -10.5 -63t-27.5 -54t-38.5 -46.5t-44.5 -41.5q-18 -16 -32.5 -30t-24.5 -28t-16 -30q-5 -14 -5 -32q0 -36 20 -64.5t50.5 -48t68.5 -29.5t72 -10q48 0 85 13 t62 35t37 52q12 32 12 66v466h206v-495q0 -74 -28 -132t-76 -97.5t-112 -59.5t-135 -20q-31 0 -65 5t-68 16t-67.5 28t-63.5 41v-78h-207v289q0 31 2 55t7.5 43.5t14.5 36t22.5 31.5t32.5 31t44 36l51 39q-6 -2 -16 -2h-18q-16 0 -37 3t-43 12t-44 25t-39 42t-28 63.5 t-11 87.5z" />
<glyph unicode="&#xe07;" horiz-adv-x="792" d="M14 494h222l108 -285q6 -16 16 -27t21.5 -17.5t24.5 -9.5t26 -3q12 0 26 2.5t26.5 10t21 20t8.5 32.5v411h-106v164h313v-573q0 -58 -23.5 -101.5t-63.5 -72.5t-92 -44t-108 -15q-48 0 -93 11t-84 33t-69 56t-46 78z" />
<glyph unicode="&#xe08;" horiz-adv-x="901" d="M14 514q6 43 26 81.5t50.5 71.5t70.5 59t86.5 44.5t99.5 28.5t109 10q44 0 92 -5.5t93 -18t85 -33t70 -52t48 -74t18 -98.5q0 -34 -11 -74t-30.5 -84.5t-45 -91.5t-54.5 -94.5t-59 -94t-58 -89.5h-234l-176 295h-104v170h250l154 -252q26 39 52 81t46.5 82t33.5 76.5 t13 65.5q0 32 -16.5 55t-43.5 38t-61 21.5t-70 6.5q-32 0 -65.5 -7.5t-62.5 -23.5t-50.5 -39t-29.5 -55h-226z" />
<glyph unicode="&#xe09;" horiz-adv-x="958" d="M58 518q6 58 36 110.5t82.5 92.5t126 64t164.5 24q108 0 187.5 -28t131 -75t76.5 -108t25 -127v-471h-209v72q-30 -28 -61 -47t-64 -30t-67 -15t-70 -4q-76 0 -138.5 21t-107 60.5t-68.5 97.5q-24 57 -24 131v160h206v-130q0 -36 10 -67t32 -53t57 -35t86 -13 q43 0 81 11.5t66.5 35t45 59t16.5 82.5v150q0 28 -14 54t-41 47.5t-66.5 34.5t-89.5 13q-46 0 -80.5 -10.5t-59.5 -27.5t-39 -38t-18 -41h-212z" />
<glyph unicode="&#xe0a;" horiz-adv-x="915" d="M70 588v174q28 12 55 19t50.5 11t42 5t28.5 1q45 0 83 -9t65.5 -29t42.5 -52t15 -75q0 -26 -7 -47.5t-21 -43.5t-34 -46t-46 -54t-40.5 -57t-14.5 -57v-46q0 -29 14.5 -51t38.5 -37t53 -22.5t59 -7.5q29 0 59 6t53.5 19t38.5 34t15 51v42q0 34 -10 53t-28 29t-41 13 t-49 5h-19v143h17q42 0 70 12.5t44.5 40.5t23.5 72t7 108h209q0 -47 -3 -91.5t-13 -84t-31 -71t-55 -51.5q27 -19 43.5 -42.5t25.5 -47.5t12 -47t3 -41v-56q0 -51 -16 -91.5t-42 -71.5t-62.5 -52t-77.5 -35t-85.5 -20t-88.5 -6q-48 0 -94 7t-87 22t-76 37.5t-61 53t-40 69.5 t-14 87v70q0 30 6 53t18.5 44t30.5 41.5t41 43.5q30 30 49 57t19 51q0 8 -10 10t-26 0t-36 -7t-39.5 -11t-37 -12.5t-27.5 -11.5z" />
<glyph unicode="&#xe0b;" horiz-adv-x="948" d="M37 792h186q0 -14 2.5 -28.5t7.5 -27t13 -20.5t20 -8q13 0 22 7.5t14.5 19.5t8.5 27q3 14 3 30h192v-164q0 -28 -6.5 -51t-19.5 -44.5t-32 -42.5q-18 -22 -44 -46q-18 -17 -33.5 -32.5t-27 -31t-17.5 -31.5q-6 -15 -6 -33v-44q0 -31 15 -51.5t39 -33t54 -18t60 -5.5 q28 0 57 5.5t53 18t39 33.5t15 51v44q0 34 -9 53t-24 29t-36 13t-45 5h-20v141h20q37 0 62 13.5t40 41.5t21.5 73t6.5 107h208q0 -47 -2.5 -92t-13 -84.5t-31.5 -71.5q-21 -30 -57 -50q27 -19 43.5 -42.5t26.5 -47.5t13 -47t3 -41v-56q0 -50 -15 -90t-42 -71t-63 -53 t-77 -36t-85 -20t-88 -6t-90 7t-87 21t-77.5 36.5t-63 53t-42.5 70.5t-16 88v56q0 32 9 57t24 47t34.5 42t41.5 42q13 12 25 23.5t22 20.5q11 10 21 20q-6 -2 -13 -4t-14.5 -3t-13.5 -1.5t-10 -0.5q-16 0 -37 3t-43 12t-44 25t-39 42t-27.5 63.5t-10.5 87.5z" />
<glyph unicode="&#xe0c;" horiz-adv-x="1407" d="M28 514q24 62 65 116t96 93t125 61.5t151 22.5q80 0 150.5 -18t122 -58t81 -104.5t29.5 -157.5v-125q0 -32 8 -65.5t27 -61t49 -45.5q32 -18 76 -18q34 0 57 11.5t37 33t20 52.5t6 69v472h208v-501q0 -80 -18.5 -138.5t-55 -96t-90.5 -54.5q-54 -18 -124 -18 q-55 0 -105.5 20t-94.5 68v-72h-205v461q0 39 -11.5 71t-34 54t-56 34.5t-76.5 12.5q-27 0 -54 -4.5t-52.5 -15.5t-48 -27.5t-40.5 -40.5q26 -25 42 -65t16 -101v-215h108v-164h-315v396q0 24 -9 42.5t-22.5 33t-29.5 24.5q-18 11 -32 18z" />
<glyph unicode="&#xe0d;" horiz-adv-x="1399" d="M26 516q24 58 64 111t95.5 93t125.5 63.5t154 23.5q53 0 102 -7.5t91 -24.5t77 -43t60 -63.5t39 -86.5t14 -111v-57q0 -38 4 -68.5t15 -52t33 -33.5t58 -12q42 0 72.5 18t50.5 46t29.5 62t9.5 66v352h207v-624q-2 -96 -25 -173t-67.5 -132t-110.5 -85t-153 -30 q-56 0 -111.5 11.5t-103.5 40t-83 77.5t-51 123h216q10 -26 24 -42t31 -26t36 -14t39 -4q31 0 54.5 10t40.5 26t28 38t18 47t9 50.5t2 49.5v11q-22 -18 -47 -31t-52 -21t-53 -11t-52 -3q-69 0 -121 18t-86 55t-51 95t-17 139v74q0 39 -10.5 71t-32.5 54t-55 34.5t-78 12.5 q-30 0 -57.5 -4.5t-52.5 -14.5t-46 -27t-39 -42q26 -24 42 -64.5t16 -101.5v-215h108v-164h-315v396q0 23 -9.5 41.5t-23.5 34t-30 26.5q-18 11 -32 18z" />
<glyph unicode="&#xe0e;" horiz-adv-x="1024" d="M60 0v170h106v226q0 23 -9 41.5t-23 33.5t-31 25.5t-31 17.5q32 74 80 129t109 91t132 54.5t145 18.5q52 0 103 -7.5t97 -24.5t85 -44t67 -64t44 -86.5t16 -111.5v-749h-188q-22 23 -49 39.5t-56 27.5t-61 16t-64 5q-44 0 -88 -9t-83 -25t-72 -38t-55 -48v193 q32 24 68 41t74 28t78 16.5t80 5.5q56 0 109 -10t101 -30v529q0 39 -14.5 70.5t-41 53.5t-64.5 34t-86 12q-32 0 -63.5 -4t-60.5 -13.5t-54.5 -26.5t-43.5 -42q24 -25 40 -65.5t16 -100.5v-379h-312z" />
<glyph unicode="&#xe0f;" horiz-adv-x="1024" d="M60 0v170h106v226q0 23 -9 41.5t-23 33.5t-31 25.5t-31 17.5q32 74 80 129t109 91t132 54.5t145 18.5q52 0 103 -7.5t97 -24.5t85 -44t67 -64t44 -86.5t16 -111.5v-749h-200q-4 17 -10.5 32.5t-16 27.5t-22.5 19t-29 7q-17 0 -31 -8t-24 -20t-15 -28q-6 -14 -6 -30h-184 q0 13 -4.5 28t-13 28.5t-21 22.5t-29.5 9q-16 0 -28 -8.5t-20.5 -21t-13 -28.5t-4.5 -30h-188q0 57 20.5 101.5t55 75.5t79.5 47.5t93 16.5q27 0 51 -5.5t44.5 -14t37.5 -20t29 -23.5q12 12 28 22t34.5 18t40 12.5t46.5 4.5q26 0 51 -7q26 -8 44 -18v531q0 39 -14.5 70.5 t-41 53.5t-64.5 34t-86 12q-32 0 -63.5 -4t-60.5 -13.5t-54.5 -26.5t-43.5 -42q24 -25 40 -65.5t16 -100.5v-379h-312z" />
<glyph unicode="&#xe10;" horiz-adv-x="901" d="M14 514q6 43 26 81.5t50.5 71.5t70.5 59t86.5 44.5t99.5 28.5t109 10q46 0 95 -5.5t96 -19.5q14 10 22.5 31t10.5 41h211q-2 -23 -7.5 -47.5t-15.5 -47.5t-24 -44t-31 -37q24 -30 36.5 -67t12.5 -85q0 -34 -11 -74t-30.5 -84.5t-45 -91.5t-54.5 -94.5t-59 -94t-58 -89.5 h-234l-176 295h-104v170h250l154 -252q26 39 52 81t46.5 82t33.5 76.5t13 65.5q0 32 -16.5 55t-43.5 38t-61 21.5t-70 6.5q-32 0 -65.5 -7.5t-62.5 -23.5t-50.5 -39t-29.5 -55h-226zM123 -291q0 44 15.5 80.5t40.5 63.5t58 42t68 15q30 0 60.5 -11t52.5 -32q12 17 33 30 t49 13q32 0 63 -24v61h199v-238h-190q0 14 -3.5 27t-10 23t-14.5 16q-10 6 -20 6t-18 -6t-13 -16t-8 -23t-3 -27h-110q0 16 -2 28.5t-7 22.5t-12.5 15.5t-16.5 5.5q-10 0 -18 -5.5t-14 -15.5t-9.5 -23t-3.5 -28h-166z" />
<glyph unicode="&#xe11;" horiz-adv-x="993" d="M37 792h186q0 -14 2.5 -28.5t7.5 -27t13 -20.5t20 -8q13 0 22 7.5t14.5 19.5t8.5 27q3 14 3 30h182v-73q37 24 72.5 40.5t69.5 26.5t65 14.5t59 4.5q36 0 65.5 -8.5t50 -29.5t32.5 -57t12 -92v-618h-207v574q0 22 -11.5 28t-30.5 2t-44.5 -17t-53 -30t-55 -38t-52 -40 t-43.5 -35.5t-29 -25.5q-25 -22 -40.5 -37t-23.5 -29.5t-11 -32t-3 -43.5v-276h-208v262q0 30 1 53t4 42t9 35t16.5 32t26 34t36.5 40l65 57q2 2 4 3q2 2 4 5q-11 -3 -22.5 -3.5t-15.5 -0.5q-16 0 -37 3t-43 12t-44 25t-39 42t-27.5 63.5t-10.5 87.5z" />
<glyph unicode="&#xe12;" horiz-adv-x="1462" d="M72 0v500q0 72 26.5 127t71.5 93t104 59q60 21 124 24l98 -84l92 84q44 -2 85 -11.5t78.5 -27.5t68.5 -44t53.5 -59t35.5 -73t13 -88v-174q0 -18 4 -38t12.5 -39t21.5 -36t30.5 -30.5t40.5 -21t51 -7.5q36 0 57 12t32.5 34t14.5 54q4 32 4 70v468h206v-497 q0 -80 -16 -138.5t-49 -97t-84 -57t-121 -18.5q-59 0 -111.5 23t-92.5 63v-70h-210v512q0 38 -18 68t-51 40l-92 -75q-24 -24 -51.5 -23.5t-51.5 20.5l-102 80q-16 -6 -29 -16t-21 -25t-13 -32.5t-5 -36.5v-282l138 118h-86v127h326v-121l-400 -354h-184z" />
<glyph unicode="&#xe13;" horiz-adv-x="1407" d="M28 514q24 62 65 116t96 93t125 61.5t151 22.5q80 0 150.5 -18t122 -58t81 -104.5t29.5 -157.5v-160q0 -34 4 -62.5t16.5 -49.5t35 -32t58.5 -11q42 0 73.5 17t52 44t30.5 60t10 65v452h208v-792h-208v66q-46 -44 -98 -63t-110 -19q-138 0 -207.5 73t-69.5 223v181 q0 39 -11.5 71t-34 54t-56 34.5t-76.5 12.5q-27 0 -54 -4.5t-52.5 -15.5t-48 -27.5t-40.5 -40.5q26 -25 42 -65t16 -101v-215h108v-164h-315v396q0 24 -9 42.5t-22.5 33t-29.5 24.5q-18 11 -32 18z" />
<glyph unicode="&#xe14;" horiz-adv-x="1016" d="M72 0v471q0 60 18 107.5t49 85.5t73.5 65t91 45t100 26.5t102.5 8.5q50 0 102.5 -8.5t101 -26.5t91.5 -45t74.5 -65t50 -86t18.5 -107v-471h-209v473q0 34 -16.5 63.5t-46.5 51t-72 33.5t-94 12t-94 -12t-72 -33.5t-46 -50.5t-16 -64v-250l150 123h-90v129h340v-125 l-420 -350h-186z" />
<glyph unicode="&#xe15;" horiz-adv-x="1016" d="M72 0v492q0 48 12.5 88t35 72.5t53.5 58t67 43.5t77 29t83 15l106 -88l108 88q63 -6 122.5 -28t105.5 -60t74 -92t28 -126v-492h-209v494q0 18 -6.5 34t-16.5 30t-23 25.5t-27 18.5l-109 -76q-24 -17 -48.5 -17.5t-50.5 17.5l-102 76q-14 -7 -27 -18.5t-23.5 -25.5 t-17.5 -30q-6 -16 -6 -34v-271l150 123h-90v129h340v-125l-420 -350h-186z" />
<glyph unicode="&#xe16;" horiz-adv-x="995" d="M18 516q33 74 83.5 129t112.5 91t134 54.5t150 18.5q52 0 103 -7.5t98 -24.5t88 -44t71 -64t47 -86.5t17 -111.5v-471h-210v461q0 39 -14 71t-42 54t-68 34.5t-90 12.5q-32 0 -65 -5.5t-63.5 -17.5t-57.5 -28q-27 -18 -48 -40q26 -23 41 -62.5t15 -100.5v-215h108v-164 h-316v396q0 23 -9 41.5t-23.5 34t-31 26.5t-30.5 18z" />
<glyph unicode="&#xe17;" horiz-adv-x="973" d="M72 0v792h206v-77q29 26 62.5 45.5t68.5 31.5t71 18.5t71 6.5q76 0 140.5 -20.5t111 -60.5t72.5 -98t26 -132v-506h-207v479q0 34 -10 65t-33 53.5t-59 36t-88 13.5q-44 0 -85 -15t-72 -42t-50 -64.5t-19 -83.5v-442h-206z" />
<glyph unicode="&#xe18;" horiz-adv-x="952" d="M45 570q0 57 30.5 100.5t85 73.5t131.5 45.5t171 15.5q99 0 175.5 -19.5t130.5 -54.5t86 -86t42 -113h-211q-14 34 -37.5 55.5t-53 33t-63.5 15.5t-69 5q-36 0 -73.5 -1.5t-67.5 -8t-49 -18.5q-19 -11 -19 -31q0 -10 6.5 -18t19 -13t31.5 -9t43 -8l281 -44 q74 -12 125 -32t82.5 -50.5t46 -71t14.5 -92.5q0 -66 -29.5 -115t-84 -81t-132 -48t-171.5 -16q-46 0 -95 4t-97 14.5t-90 29t-74 47.5t-51 70t-19 97v133h206v-133q0 -17 12 -33.5t38 -29t68 -19.5q42 -8 100 -8q60 0 100 8.5t63.5 22t33 31t9.5 34.5q0 16 -7.5 30t-22 26 t-36.5 21q-20 9 -48 13l-298 45q-47 7 -89 19.5t-74 34t-51 53.5t-19 76z" />
<glyph unicode="&#xe19;" horiz-adv-x="973" d="M72 286v506h206v-478q0 -34 10.5 -65t33 -54t58.5 -36t89 -13q44 0 84.5 15t72 42t50 64.5t18.5 82.5v442h207v-792h-207v78q-30 -26 -62.5 -45.5t-67 -32t-71 -18.5t-71.5 -6q-77 0 -141.5 20.5t-110.5 60t-72 97.5t-26 132z" />
<glyph unicode="&#xe1a;" horiz-adv-x="973" d="M72 326v466h206v-468q0 -34 13 -64.5t39 -52.5t65 -34.5t91 -12.5t90.5 12.5t65 34.5t39.5 52q13 31 13 65v468h207v-466q0 -60 -17 -108t-46.5 -86t-69.5 -66t-86 -46.5t-96 -27.5q-50 -8 -100 -8q-49 0 -99 8.5t-96 27t-86 46.5t-69.5 66t-46.5 86t-17 108z" />
<glyph unicode="&#xe1b;" horiz-adv-x="973" d="M72 326v466h206v-468q0 -34 13 -64.5t39 -52.5t65 -34.5t91 -12.5t90.5 12.5t65 34.5t39.5 52q13 31 13 65v816h207v-814q0 -60 -17 -108t-46.5 -86t-69.5 -66t-86 -46.5t-96 -27.5q-50 -8 -100 -8q-49 0 -99 8.5t-96 27t-86 46.5t-69.5 66t-46.5 86t-17 108z" />
<glyph unicode="&#xe1c;" horiz-adv-x="1016" d="M74 238v554h307v-164h-103v-360q0 -28 5.5 -49t14 -35t20.5 -21t24 -7q18 0 31 11.5t22 31t13 45t4 53.5v197h196v-197q0 -28 3 -53.5t11 -45t22 -31t36 -11.5q10 0 21 7t19 21t13 35t5 49v524h204v-554q0 -64 -20 -112t-53 -80t-77 -47t-94 -15q-27 0 -53.5 4t-50.5 13 t-46 23t-40 32q-32 -34 -81 -53t-103 -19q-50 0 -96 15t-80 47t-54 80t-20 112z" />
<glyph unicode="&#xe1d;" horiz-adv-x="1016" d="M74 238v554h307v-164h-103v-360q0 -28 5.5 -49t14 -35t20.5 -21t24 -7q18 0 31 11.5t22 31t13 45t4 53.5v197h196v-197q0 -28 3 -53.5t11 -45t22 -31t36 -11.5q10 0 21 7t19 21t13 35t5 49v870h204v-900q0 -64 -20 -112t-53 -80t-77 -47t-94 -15q-27 0 -53.5 4t-50.5 13 t-46 23t-40 32q-32 -34 -81 -53t-103 -19q-50 0 -96 15t-80 47t-54 80t-20 112z" />
<glyph unicode="&#xe1e;" horiz-adv-x="1241" d="M26 792h224l129 -456l123 456h225l125 -450l123 450h223l-248 -792h-200l-136 498l-137 -498h-199z" />
<glyph unicode="&#xe1f;" horiz-adv-x="1241" d="M26 792h224l129 -456l123 456h225l129 -450l203 798h223l-328 -1140h-200l-140 498l-137 -498h-199z" />
<glyph unicode="&#xe20;" horiz-adv-x="1024" d="M60 0v164h106v232q0 23 -9 41.5t-23 33.5t-31 25.5t-31 17.5q32 74 80 129t109 91t132 54.5t145 18.5q52 0 103 -7.5t97 -24.5t85 -44t67 -64t44 -86.5t16 -111.5v-469h-206v461q0 39 -14.5 70.5t-41 53.5t-64.5 34t-86 12q-32 0 -63.5 -4t-60.5 -13.5t-54.5 -26.5 t-43.5 -42q24 -25 40 -65.5t16 -100.5v-379h-312z" />
<glyph unicode="&#xe21;" horiz-adv-x="971" d="M72 0v792h206v-442q0 -45 19 -82.5t50 -64.5t72 -42t85 -15q52 0 88 13t59 36t33 53q10 32 10 66v478h207v-506q0 -74 -26 -132t-72.5 -97.5t-110.5 -60t-141 -20.5q-82 0 -148 25q-67 25 -125 77v-78h-206z" />
<glyph unicode="&#xe22;" horiz-adv-x="971" d="M64 258q0 28 6 54t16 48t24 39t30 29q-20 14 -34 32.5t-23.5 39t-14 42.5t-4.5 42q0 42 11 73t30.5 54t45 39t53.5 25t57 13t55 4h172v-166h-142q-18 0 -31 -5t-22 -13t-14 -18t-5 -20q0 -12 5 -23t15 -19t25 -13t35 -5h130v-158h-126q-38 0 -60 -20t-22 -64 q0 -24 16 -44t43.5 -34.5t65.5 -21.5q39 -8 83 -8q46 0 84 9.5t65 30t42 52.5t15 76v464h207v-489q0 -74 -31.5 -133.5t-87.5 -100.5t-132 -63q-74 -22 -162 -22q-57 0 -110.5 8t-100 24.5t-85 40.5t-66.5 54.5t-43 67.5t-15 79z" />
<glyph unicode="&#xe23;" horiz-adv-x="891" d="M39 270h207q2 -20 13 -40t34 -37t60 -28t89 -11q41 0 70.5 4t50.5 11t34 16t20 18t10 18t4 17q0 10 -4.5 19t-18.5 17t-37.5 15.5t-60.5 13.5l-234 41q-46 8 -87.5 24.5t-72.5 42t-47.5 61.5t-12.5 85q3 59 32.5 105t79.5 78t117.5 48.5t146.5 16.5q98 0 170 -19.5 t121 -56t76 -88.5q27 -53 35 -117h-216q-4 26 -16 46t-35 34t-56 22t-79 9q-31 0 -61 -3.5t-54 -12.5t-39.5 -23t-15.5 -35q-1 -12 6.5 -22t21 -18.5t33 -14.5t41.5 -10l189 -31q80 -13 136.5 -31t91.5 -45.5t50.5 -65t12.5 -89.5q-5 -122 -106.5 -186t-293.5 -64 q-43 0 -89 5t-90.5 17t-84.5 33t-71 53t-49.5 76t-20.5 102z" />
<glyph unicode="&#xe24;" horiz-adv-x="995" d="M18 516q33 74 83.5 129t112.5 91t134 54.5t150 18.5q52 0 103 -7.5t98 -24.5t88 -44t71 -64t47 -86.5t17 -111.5v-731h-210v721q0 39 -14 71t-42 54t-68 34.5t-90 12.5q-32 0 -65 -5.5t-63.5 -17.5t-57.5 -28q-27 -18 -48 -40q26 -23 41 -62.5t15 -100.5v-215h108v-164 h-316v396q0 23 -9 41.5t-23.5 34t-31 26.5t-30.5 18z" />
<glyph unicode="&#xe25;" horiz-adv-x="940" d="M41 226q0 53 19.5 94t62.5 71t111 48.5t164 25.5l165 14q22 2 39.5 6.5t31 11.5t21 16t7.5 19q0 23 -15 42.5t-40 32.5t-58.5 20.5t-69.5 7.5q-38 0 -73 -5t-62 -18.5t-43.5 -37.5t-18.5 -62h-208q4 69 34 123.5t83 92.5t127 58.5t168 20.5q43 0 87.5 -6t87.5 -19.5 t80.5 -35.5t66 -54t44.5 -75t16 -99v-518h-206v354q-18 -10 -40 -16t-52 -10l-170 -16q-72 -4 -109 -26t-37 -56q0 -16 11 -30t30 -24.5t46 -16t59 -5.5q30 0 67.5 7t85.5 19v-170q-51 -12 -95 -18t-73 -6q-70 0 -123.5 10.5t-91.5 28.5t-63 42t-40 50.5t-20.5 54.5t-5.5 54 z" />
<glyph unicode="&#xe26;" horiz-adv-x="1024" d="M60 0v170h106v226q0 23 -9 41.5t-23 33.5t-31 25.5t-31 17.5q32 74 80 129t109 91t132 54.5t145 18.5q52 0 103 -7.5t97 -24.5t85 -44t67 -64t44 -86.5t16 -111.5v-727h-206v719q0 39 -14.5 70.5t-41 53.5t-64.5 34t-86 12q-32 0 -63.5 -4t-60.5 -13.5t-54.5 -26.5 t-43.5 -42q24 -25 40 -65.5t16 -100.5v-379h-312z" />
<glyph unicode="&#xe27;" horiz-adv-x="909" d="M37 301h215q12 -76 63 -112.5t131 -36.5q58 0 99 20t67 53t38 77q12 46 12 94t-11.5 91.5t-36.5 76t-65.5 52t-100.5 19.5q-38 0 -70 -8.5t-56.5 -25t-41 -41t-22.5 -56.5h-215q16 70 49.5 127t84.5 96t119 60.5t152 21.5q74 0 135 -15.5t108 -43.5t81 -67t56.5 -85 t33 -99t10.5 -108q0 -48 -8.5 -97t-28 -94.5t-52.5 -84.5t-80.5 -68.5t-111 -46t-147.5 -16.5q-96 0 -167 23.5t-120.5 66t-79 100.5t-40.5 127z" />
<glyph unicode="&#xe28;" horiz-adv-x="989" d="M72 0v471q0 60 17 107.5t47 85.5t70 65t87 45t98 26.5t103 8.5q48 0 94.5 -7.5t91.5 -21.5q8 5 15 16.5t11 25.5t6 28q3 14 3 26h215q2 -65 -20 -117t-68 -83q36 -39 56 -89.5t20 -115.5v-471h-208v473q0 34 -14 63.5t-42 51t-68 33.5t-92 12t-92.5 -12t-68 -33.5 t-41.5 -50.5t-14 -64v-86q26 32 52 53t58 33.5t72 17.5t91 5v-164q-70 0 -121.5 -14.5t-85.5 -42t-50 -67.5t-16 -92v-116h-206z" />
<glyph unicode="&#xe29;" horiz-adv-x="973" d="M72 316v476h206v-478q0 -34 13 -63t39 -49t65 -31t91 -11t90.5 11t65 31t39.5 48q13 30 13 64v36h-313v215h199v-53h114v280h205v-280h97v-162h-97v-34q0 -60 -16.5 -108t-46.5 -85t-69.5 -63t-85.5 -43t-96 -25q-49 -8 -99 -8q-49 0 -99 8t-96 25t-86 43t-69.5 63 t-46.5 85t-17 108z" />
<glyph unicode="&#xe2a;" horiz-adv-x="940" d="M41 226q0 53 19.5 94t62.5 71t111 48.5t164 25.5l165 14q22 2 39.5 6.5t31 11.5t21 16t7.5 19q0 23 -15 42.5t-40 32.5t-58.5 20.5t-69.5 7.5q-38 0 -73 -5t-62 -18.5t-43.5 -37.5t-18.5 -62h-208q4 69 34 123.5t83 92.5t127 58.5t168 20.5q43 0 88.5 -6.5t89.5 -20.5 q8 5 14.5 16.5t11 25.5t6.5 28t2 26h212q0 -32 -5 -62t-17 -56t-29 -47t-40 -37q24 -31 36.5 -69.5t12.5 -86.5v-518h-206v354q-18 -10 -40 -16t-52 -10l-170 -16q-72 -4 -109 -26t-37 -56q0 -16 11 -30t30 -24.5t46 -16t59 -5.5q30 0 67.5 7t85.5 19v-170q-51 -12 -95 -18 t-73 -6q-70 0 -123.5 10.5t-91.5 28.5t-63 42t-40 50.5t-20.5 54.5t-5.5 54z" />
<glyph unicode="&#xe2b;" horiz-adv-x="958" d="M74 0v792h206v-247l328 247h310l-193 -145q38 -17 69.5 -41.5t53.5 -57t33.5 -72.5t11.5 -89v-387h-209v360q0 28 -7 55t-21 50t-37 39t-54 24l-285 -214v-314h-206z" />
<glyph unicode="&#xe2c;" horiz-adv-x="1241" d="M26 792h226l137 -485l135 383h182l138 -383l86 293q0 36 -27.5 51t-81.5 15v124q38 2 68.5 8.5t52.5 20t35 34.5t17 52h228q-4 -42 -16 -76t-28.5 -59.5t-37.5 -43.5q-20 -20 -42 -30q18 -20 24 -44t6 -56q0 -10 -1 -20.5t-3.5 -23t-7 -27.5l-10.5 -35l-156 -490h-192 l-144 406l-145 -406h-191z" />
<glyph unicode="&#xe2d;" horiz-adv-x="962" d="M37 516q23 67 63.5 121t96.5 92.5t126.5 59t153.5 20.5q74 0 136 -15.5t111.5 -42.5t87 -65.5t62 -85t37.5 -99.5t13 -110q0 -50 -10.5 -99.5t-33 -94.5t-57.5 -83.5t-84.5 -67t-114.5 -44.5t-147 -16t-146.5 16.5t-113.5 46t-83 68.5t-55 84t-30.5 93.5t-9.5 96.5 q0 11 0.5 25t3.5 40h434v-159h-219q7 -28 24.5 -54t44.5 -45.5t65 -30.5t85 -11q63 0 108 18t73 50t41 76t13 96t-13 96t-41 77t-73 51.5t-108 18.5q-40 0 -76 -8.5t-65.5 -24t-51 -38.5t-34.5 -52h-213z" />
<glyph unicode="&#xe2e;" horiz-adv-x="962" d="M37 516q23 67 63.5 121t96.5 92.5t126.5 59t153.5 20.5q56 0 104.5 -9t90.5 -26q10 6 18 18t14 27t10 31q3 14 3 26h211q1 -33 -5.5 -64t-20 -58.5t-32 -49.5t-42.5 -36q48 -56 72 -127t24 -150q0 -50 -10.5 -99.5t-33 -94.5t-57.5 -83.5t-84.5 -67t-114.5 -44.5 t-147 -16t-146.5 16.5t-113.5 46t-83 68.5t-55 84t-30.5 93.5t-9.5 96.5q0 11 0.5 25t3.5 40h434v-159h-219q7 -28 24.5 -54t44.5 -45.5t65 -30.5t85 -11q63 0 108 18t73 50t41 76t13 96t-13 96t-41 77t-73 51.5t-108 18.5q-40 0 -76 -8.5t-65.5 -24t-51 -38.5t-34.5 -52 h-213z" />
<glyph unicode="&#xe2f;" horiz-adv-x="895" d="M37 553q0 46 12 81.5t33 61.5t49 45t60 30t65.5 16t67.5 5h149v-168h-149q-40 0 -57 -20t-17 -53q0 -17 9 -34t28 -30t48 -22t69 -9q44 0 81 7t64 22t42 37q15 24 15 56v214h207v-792h-207v336q-43 -30 -94.5 -42t-103.5 -12q-84 0 -153 19t-117 54t-74.5 85t-26.5 113z " />
<glyph unicode="&#xe30;" horiz-adv-x="551" d="M74 108v218h184v-60h240v-158h-424zM74 500v217h184v-59h240v-158h-424z" />
<glyph unicode="&#xe31;" d="M-590 922v229h180v-71h436v-158h-616z" />
<glyph unicode="&#xe32;" horiz-adv-x="768" d="M20 500q0 49 14 91t38 76.5t56.5 60.5t70 44t79.5 28q40 9 82 9q68 0 129 -18t107 -53.5t73 -89.5t27 -124v-524h-206v500q0 33 -10 57.5t-27 41.5t-41 25q-24 9 -52 9q-26 0 -48 -9.5t-39 -26.5t-27 -42t-12 -55h-214z" />
<glyph unicode="&#xe33;" horiz-adv-x="768" d="M-346 1065q0 37 14 69t37.5 56t55.5 37.5t69 13.5q36 0 68.5 -13.5t57 -37.5t38.5 -56t14 -69t-14 -69t-38.5 -56t-57 -37.5t-68.5 -13.5q-37 0 -69 13.5t-55.5 37.5t-37.5 56t-14 69zM-226 1065q0 -10 5 -20.5t13 -18t18 -12t20 -4.5q12 0 22 4.5t17 12t12 17.5t5 21 q0 12 -5 21.5t-12 17.5t-17 12t-22 4q-10 0 -20 -4t-18 -12t-13 -17.5t-5 -21.5zM20 500q0 49 14 91t38 76.5t56.5 60.5t70 44t79.5 28q40 9 82 9q68 0 129 -18t107 -53.5t73 -89.5t27 -124v-524h-206v500q0 33 -10 57.5t-27 41.5t-41 25q-24 9 -52 9q-26 0 -48 -9.5 t-39 -26.5t-27 -42t-12 -55h-214z" />
<glyph unicode="&#xe34;" d="M-914 922l86 158h756v-158h-842z" />
<glyph unicode="&#xe35;" d="M-914 922l86 158h574v120h182v-278h-842z" />
<glyph unicode="&#xe36;" d="M-914 922l86 158h460q0 32 12.5 59t33 47t48.5 31.5t59 11.5q32 0 60.5 -12t48.5 -32.5t32 -49t12 -60.5t-12 -60.5t-32 -48.5t-48.5 -32t-60.5 -12h-699zM-262 1075q0 -9 4 -17t10.5 -14.5t15 -10t17.5 -3.5t17.5 3.5t15 10t10.5 14.5t4 17q0 10 -4 18.5t-10.5 15 t-15 10t-17.5 3.5t-17.5 -3.5t-15 -10t-10.5 -15t-4 -18.5z" />
<glyph unicode="&#xe37;" d="M-914 922l86 158h344v120h172v-120h66v120h174v-278h-842z" />
<glyph unicode="&#xe38;" d="M-326 -92h254v-346h-178v188h-76v158z" />
<glyph unicode="&#xe39;" d="M-631 -92h250v-125q0 -32 16.5 -49.5t48.5 -17.5q31 0 48.5 17t17.5 50v125h178v-125q0 -44 -13.5 -84.5t-43 -71t-75.5 -48t-112 -17.5q-58 0 -102 13t-74 38t-47 59.5t-22 77.5h-70v158z" />
<glyph unicode="&#xe3a;" d="M-305 -213q0 26 9.5 48.5t26.5 39.5t40 27t49 10q24 0 46.5 -10t39 -27t26.5 -40t10 -48q0 -26 -10 -48.5t-26.5 -39.5t-39 -27t-46.5 -10q-26 0 -49 10t-40 27t-26.5 39.5t-9.5 48.5z" />
<glyph unicode="&#xe3e;" />
<glyph unicode="&#xe3f;" horiz-adv-x="1030" d="M82 0v944h334v113h122v-113h84q84 0 145 -17t100 -50t58 -81t19 -108q0 -64 -22 -107.5t-60 -72.5q58 -30 89.5 -83t31.5 -136q0 -54 -19.5 -105.5t-59.5 -92.5t-102 -66t-148 -25h-116v-142h-122v142h-334zM297 188h119v210h-119v-210zM297 584h119v174h-119v-174z M538 188h80q44 0 73.5 9t46 24t23.5 34.5t7 39.5q0 19 -6.5 37.5t-22.5 33t-42.5 23.5t-68.5 9h-90v-210zM538 584h80q28 0 49 6.5t35 18t20.5 27.5t6.5 34q0 20 -6.5 36t-20.5 28t-36 18t-54 6h-74v-174z" />
<glyph unicode="&#xe40;" horiz-adv-x="348" d="M72 0v792h204v-792h-204z" />
<glyph unicode="&#xe41;" horiz-adv-x="647" d="M72 0v792h204v-792h-204zM370 0v792h206v-792h-206z" />
<glyph unicode="&#xe42;" horiz-adv-x="465" d="M-12 1050l36 150h458l98 -164h-287q23 -22 32 -47t9 -49v-776h98v-164h-305v934q0 26 -11.5 47t-31 36.5t-45 24t-51.5 8.5z" />
<glyph unicode="&#xe43;" horiz-adv-x="465" d="M-53 934q4 48 16.5 87.5t32.5 70t46 52.5t55.5 36.5t61 21t62.5 6.5q28 0 57.5 -5t56.5 -15t52 -25.5t43 -36t30 -47.5t13 -59q0 -26 -5.5 -45.5t-16.5 -36t-26 -30.5q-15 -16 -32 -30q-28 -23 -43.5 -52.5t-15.5 -71.5v-590h98v-164h-305v758q0 39 10.5 67t26.5 48.5 t33 36t31 28.5q4 4 12 13t17 20t16 21t7 18q0 17 -14 25.5t-38 8.5q-14 0 -31 -7t-30 -21t-21 -34.5t-6 -47.5h-193z" />
<glyph unicode="&#xe44;" horiz-adv-x="465" d="M-119 1036l99 164h456l37 -150q-27 0 -52 -8.5t-44 -24t-31 -36.5t-12 -47v-770h98v-164h-305v940q0 24 8.5 49t32.5 47h-287z" />
<glyph unicode="&#xe45;" horiz-adv-x="768" d="M20 500q0 49 14 91t38 76.5t56.5 60.5t70 44t79.5 28q40 9 82 9q68 0 129 -18t107 -53.5t73 -89.5t27 -124v-782h-206v758q0 33 -10 57.5t-27 41.5t-41 25q-24 9 -52 9q-26 0 -48 -9.5t-39 -26.5t-27 -42t-12 -55h-214z" />
<glyph unicode="&#xe46;" horiz-adv-x="856" d="M51 514q0 32 6 65.5t19.5 64t35.5 58.5t54 49t76 36t100 20l78 -72l76 72q64 -6 109.5 -22t78 -39.5t52 -54t30.5 -66t14.5 -74.5t3.5 -80v-731h-206v752q0 17 -1 37.5t-4 40t-10 34.5q-7 14 -21 20l-83 -75q-6 -6 -16.5 -9.5t-21 -3.5t-21 3.5t-17.5 9.5l-84 73 q-10 -4 -18 -15t-13 -26t-7.5 -32.5t-2.5 -34.5q0 -37 11.5 -59.5t37.5 -22.5h78v-174h-78q-26 0 -55.5 5t-58 17t-54 31.5t-45.5 48t-31.5 66.5t-11.5 88z" />
<glyph unicode="&#xe47;" d="M-817 1110q0 54 21 96t55 71t76.5 44t86.5 15h459v-150h-444q-24 0 -39 -8t-23.5 -19t-12 -23.5t-3.5 -21.5q0 -8 1.5 -18t6.5 -19t13 -14.5t20 -5.5q18 0 30 19.5t11 49.5h145q-2 -31 9 -50t30 -19q10 0 17.5 5.5t12.5 14.5t7 22t0 27h154q3 -60 -7.5 -102t-33.5 -69.5 t-56 -40.5t-75 -13q-48 0 -80 17q-32 18 -50 42q-22 -25 -56 -42t-78 -17q-40 0 -70 10t-52 26.5t-36 38t-23 45t-12.5 46.5t-3.5 43z" />
<glyph unicode="&#xe48;" d="M-250 1290v262h178v-262h-178z" />
<glyph unicode="&#xe49;" d="M-540 1413v145h233v-120q42 2 71.5 12t48 26t27 37t8.5 45h172q0 -52 -21 -100.5t-65 -86t-112 -60.5t-162 -23h-131v125h-69z" />
<glyph unicode="&#xe4a;" d="M-547 1288q-4 60 7.5 106t32.5 77t51 46t63 15q19 0 34 -5t27 -13t21 -18q9 -12 16 -22q9 10 20 21t24 19t28 13t33 5q44 0 73 -20t45 -54q5 7 11 17.5t10.5 23.5t6.5 27t1 28h155q0 -42 -14.5 -84.5t-39.5 -79t-58.5 -63.5t-71.5 -39h-108q0 21 -1 38t-5 29t-10 18.5 t-17 6.5q-12 0 -21.5 -13t-9.5 -44h-98q0 32 -8 44.5t-21 12.5q-12 0 -19.5 -7t-10.5 -20t-3.5 -30t-0.5 -35h-142z" />
<glyph unicode="&#xe4b;" d="M-372 1388v152h122v100h178v-100h123v-152h-123v-100h-178v100h-122z" />
<glyph unicode="&#xe4c;" d="M-360 1176q0 62 21 111t63 83t103 52.5t140 19.5v-152q-40 0 -68.5 -7t-46.5 -21t-26 -36t-8 -50h-178z" />
<glyph unicode="&#xe4d;" d="M-346 1086q0 36 14 68t37.5 56t55.5 38t69 14q36 0 68.5 -14t57 -38t38.5 -56t14 -68q0 -37 -14 -69.5t-38.5 -56t-57 -37t-68.5 -13.5q-37 0 -69 13.5t-55.5 37t-37.5 56t-14 69.5zM-226 1086q0 -10 5 -20.5t13 -18t18 -12.5t20 -5q12 0 22 5t17 12.5t12 17.5q5 11 5 21 q0 12 -5 21.5t-12 17t-17 11.5t-22 4q-10 0 -20 -4t-18 -11.5t-13 -17t-5 -21.5z" />
<glyph unicode="&#xe4e;" d="M-414 922q-2 42 6.5 83t28 75t49.5 57t72 27q14 68 79 102t179 32v-149q-33 0 -54 -4.5t-33.5 -13t-16.5 -21.5q-4 -12 -4 -30v-50h-56q-20 0 -34 -8t-22 -22t-11 -34t-3 -44h-180z" />
<glyph unicode="&#xe4f;" horiz-adv-x="983" d="M51 422q0 61 16 117.5t44.5 105t69.5 89t90 68.5t106 44t119 16q60 0 116 -16t105 -44t89 -68.5t68 -89t44 -105t16 -117.5t-16 -117.5t-44 -105.5t-68 -89t-89 -68.5t-105 -44t-116 -15.5q-62 0 -119 15.5t-106 44t-90 68.5t-69.5 89t-44.5 105.5t-16 117.5zM190 426 q0 -62 24 -117.5t65 -97t97 -66t120 -24.5q62 0 116 24.5t95 66t65 97t24 117.5t-24 117t-65 96t-95 65q-54 23 -116 23q-64 0 -120 -23.5t-97 -64.5t-65 -96t-24 -117zM260 426q0 47 19 89t51 73.5t74 50.5q44 19 92 19q47 0 88.5 -19t72.5 -50.5t49.5 -73.5t18.5 -89 q0 -48 -18.5 -91t-49.5 -74.5t-73 -50t-88 -18.5q-48 0 -91 18.5t-75 50t-51 74.5t-19 91zM385 426q0 -23 8.5 -43.5t23 -35.5t35 -23t44.5 -8q22 0 40.5 8t33 23t22.5 35.5t8 43.5q0 22 -8 41t-22.5 34t-33.5 23q-18 8 -40 8q-24 0 -44.5 -8t-35 -23t-23 -34t-8.5 -41z" />
<glyph unicode="&#xe50;" horiz-adv-x="954" d="M49 338q0 83 31.5 151.5t88.5 118.5t136 77t172 27q94 0 172.5 -27t135.5 -75t88.5 -116t31.5 -148q0 -59 -16.5 -108.5t-46 -90.5t-70 -72t-88 -51.5t-100 -31t-107.5 -10.5q-54 0 -106.5 10t-100 31t-88 51.5t-70.5 70t-46.5 88t-16.5 105.5zM252 342q0 -40 19 -74.5 t50 -60t72 -39.5t84 -14q44 0 84.5 14t72 39t50 59t18.5 76q0 48 -18.5 85t-50 62t-72 38t-84.5 13t-84.5 -12t-71.5 -37t-50 -62.5t-19 -86.5z" />
<glyph unicode="&#xe51;" horiz-adv-x="944" d="M-10 121l145 115q30 -33 68.5 -53.5t78.5 -31.5t79 -14.5t71 -3.5q56 0 104 14.5t82.5 42.5t54 71t19.5 99q0 46 -17.5 81t-48 59t-72.5 35.5t-89 11.5q-44 0 -81.5 -5.5t-64.5 -17t-42 -29t-15 -41.5q0 -17 10 -31t29 -24.5t45 -16.5q28 -5 60 -5q8 0 30 1t58 7v-151 q-24 -6 -41 -9t-30 -4t-23 -1.5t-21 -0.5q-58 0 -115.5 13.5t-102.5 41.5t-73 70t-28 100q0 48 16 86.5t45 68t68 50.5t84 34t95 19t99 6q89 0 167 -21t136 -63.5t92 -107.5q33 -66 33 -154q0 -86 -34.5 -156t-95.5 -120t-145 -77t-184 -27q-50 0 -105 3t-111 17t-114 42 t-116 77z" />
<glyph unicode="&#xe52;" horiz-adv-x="1120" d="M8 628l41 166q52 0 94.5 -13t73.5 -40t48 -67t17 -96v-244q0 -34 22 -66t63 -56.5t101 -39t136 -14.5q63 0 112.5 10.5t83 30t51 47t17.5 61.5v156q0 38 -15 59.5t-42 28.5l-113 -88l-116 84q-9 -2 -18.5 -8.5t-16.5 -18.5t-12 -28t-5 -38q0 -16 2 -30t7 -24t12 -15.5 t19 -5.5h84v-156h-70q-53 0 -93 8.5t-68 23.5t-46.5 35.5t-28.5 45t-14 52.5t-4 58q0 57 23 103t63 79.5t92 54.5t110 27l76 -56l70 54q38 -2 76 -12t72 -26t63 -38t50.5 -50t33.5 -61t12 -71v-130q0 -58 -17.5 -105t-48.5 -83t-73 -63t-91 -44t-103 -25t-110 -8h-79 q-102 0 -188.5 23.5t-148.5 66.5t-97 103.5t-35 134.5v235q0 40 -16 56.5t-56 16.5z" />
<glyph unicode="&#xe53;" horiz-adv-x="973" d="M53 342q0 92 27.5 158t74 110t109 68t132.5 30l96 -75l92 75q76 -6 138 -29t106 -60t69 -84t25 -99v-436h-203v436q0 17 -9.5 33t-23.5 28.5t-31 20.5t-33 10l-132 -102l-130 102q-14 -4 -32 -14t-34 -32t-27 -56t-11 -84q0 -37 1 -70.5t7 -58.5t20 -40t38 -15h14.5t21 2 t28.5 6t38 10v-160q-32 -12 -67 -17t-66 -5q-53 0 -91.5 12t-65 34t-42.5 53.5t-25 70t-11.5 83.5t-2.5 95z" />
<glyph unicode="&#xe54;" horiz-adv-x="971" d="M53 307v74q0 80 28 139.5t79.5 98.5t123.5 58t160 19h212q20 0 32.5 7t20 19t10 30t2.5 40h205q0 -32 -4.5 -63t-15 -60t-29 -54t-47 -43t-68.5 -29t-92 -11h-238q-40 0 -73 -9t-56.5 -26t-36 -41t-12.5 -54v-88q0 -32 9 -59.5t28 -48t49 -32.5t70 -12h34q-25 22 -39 48 t-14 54q0 14 2 31t10.5 36t25.5 37t47 32t75 23t111 9v-154q-30 0 -47 -4.5t-26 -11t-11 -14.5q-2 -6 -2 -12q0 -16 7 -29t18.5 -23t26 -16t28.5 -6h264v-162h-527q-66 0 -117.5 14t-89 37t-63 53.5t-41.5 65t-22.5 69.5t-6.5 68z" />
<glyph unicode="&#xe55;" horiz-adv-x="971" d="M53 307v74q0 65 19 117t54.5 90t86.5 62t115 36q0 32 12.5 60.5t34 49.5t49.5 33.5t62 12.5q30 0 58 -12t49 -31.5t34 -46t16 -56.5h13q20 0 32.5 7t20 19t10 30t2.5 40h205q0 -32 -4.5 -63t-15 -60t-29 -54t-47 -43t-68.5 -29t-92 -11h-238q-40 0 -73 -9t-56.5 -26 t-36 -41t-12.5 -54v-88q0 -32 9 -59.5t28 -48t49 -32.5t70 -12h34q-25 22 -39 48t-14 54q0 14 2 31t10.5 36t25.5 37t47 32t75 23t111 9v-154q-30 0 -47 -4.5t-26 -11t-11 -14.5q-2 -6 -2 -12q0 -16 7 -29t18.5 -23t26 -16t28.5 -6h264v-162h-527q-66 0 -117.5 14t-89 37 t-63 53.5t-41.5 65t-22.5 69.5t-6.5 68zM430 682q0 -12 4.5 -22t12 -17t17.5 -12t22 -5q10 0 20 5t17 12t11 17t4 22q0 10 -4 20t-11 17t-17 11.5t-20 4.5q-11 0 -21.5 -4.5t-18 -11.5t-12 -17t-4.5 -20z" />
<glyph unicode="&#xe56;" horiz-adv-x="999" d="M20 696l156 86l76 -130q28 12 60 22t67 18t72 12t75 4q104 0 183.5 -27t132 -74.5t79.5 -113t27 -143.5q0 -76 -31 -141.5t-89 -113.5t-139.5 -75.5t-182.5 -27.5q-77 0 -146 16t-121.5 46t-82.5 74q-31 44 -31 98q0 52 19.5 89t53.5 62t82 37t105 12h84v-152h-78 q-19 0 -31 -4t-18 -11t-8 -15t-2 -16q0 -18 16 -32t41 -23t57.5 -14t65.5 -5q25 0 52 5t52.5 15t48.5 26t40.5 37.5t28 49.5t10.5 63q0 52 -18 89.5t-47 61t-67 35.5q-40 11 -80 11q-88 0 -179 -23.5t-181 -79.5z" />
<glyph unicode="&#xe57;" horiz-adv-x="1183" d="M51 312q0 68 12.5 122t35 96t54 73t69.5 52t82 33t92 16l75 -71l76 69q82 -9 143.5 -37t101.5 -71.5t60 -99.5t20 -122v-54q0 -20 -1.5 -43t-12.5 -47q11 8 21.5 20t19 27t14 32t5.5 35v236q0 56 16 96t46.5 67t73 40t93.5 13l45 -166q-40 0 -58 -16.5t-18 -56.5v-201 q0 -76 -29 -137.5t-81 -108t-124.5 -76.5t-158.5 -40l-127 84q28 29 44 59t23.5 60.5t9 60.5t1.5 60v56q0 34 -8.5 60.5t-21.5 45t-29 30.5q-15 12 -31 16l-115 -98l-113 102q-14 -4 -32 -16t-33.5 -37t-26 -64t-10.5 -95q0 -14 1 -31t3 -34t6 -33.5t11 -29.5t16 -20.5 t23 -7.5h12t15 1t21 4t31 7v-160q-10 -4 -24 -7.5t-28.5 -6t-29.5 -3.5t-29 -1q-45 0 -79.5 13t-60 35.5t-43 53t-28.5 66t-15.5 74t-4.5 76.5z" />
<glyph unicode="&#xe58;" horiz-adv-x="971" d="M49 276v101q0 73 26.5 133t75.5 102t119 65t158 23h260q20 0 32 6t19 18t10 29t3 39h198q0 -32 -4 -63t-14.5 -60t-29 -54t-47 -43t-68 -29t-93.5 -11h-280q-39 0 -69.5 -11.5t-51 -32t-31 -47.5t-10.5 -58v-115q0 -23 10 -40.5t25 -30.5t35 -21q18 -8 38 -10l126 100 l130 -102q20 0 39.5 5t35 15t25 25.5t9.5 38.5q0 10 -2 20t-7.5 18t-14 13.5t-21.5 5.5h-56v158h70q46 0 81 -9t60 -24.5t42 -37t27 -45t14 -49.5t4 -50q0 -64 -24 -112t-69 -79.5t-109 -47t-144 -15.5l-86 70l-84 -70q-74 0 -139 20t-113.5 56t-76.5 88t-28 118z" />
<glyph unicode="&#xe59;" horiz-adv-x="968" d="M49 293v71q0 88 20.5 152.5t59.5 106t98 61.5t135 20h66q22 0 42 -2t37 -7t33 -15q16 -8 30 -24l32 30q6 6 17 12t30 6h66q17 0 27 6t15 16.5t7 27t2 38.5h202q0 -32 -3 -62t-12 -58t-26 -51t-44 -40t-66 -26.5t-92 -9.5q-16 0 -27 -1.5t-20 -9.5l-22 -20l249 -514h-215 l-223 473q-6 12 -12.5 23.5t-14.5 21.5t-17 16t-19 6h-56q-22 0 -39 -8t-30 -27.5t-20 -53t-7 -83.5v-86q0 -22 3.5 -43t12 -39t22.5 -29t38 -11q22 0 46 6t58 20l31 -160q-40 -20 -77.5 -28t-69.5 -8q-76 0 -127.5 23t-82.5 64t-44 96t-13 120z" />
<glyph unicode="&#xe5a;" horiz-adv-x="1198" d="M37 553q0 46 12 81.5t33 61.5t49 45t60 30t65.5 16t67.5 5h149v-168h-149q-40 0 -57 -20t-17 -53q0 -17 9 -34t28 -30t48 -22t69 -9q44 0 81 7t64 22t42 37q15 24 15 56v214h207v-792h-207v336q-43 -30 -94.5 -42t-103.5 -12q-84 0 -153 19t-117 54t-74.5 85t-26.5 113z M922 0v792h204v-792h-204z" />
<glyph unicode="&#xe5b;" horiz-adv-x="1833" d="M68 408q0 50 11 97t32 89.5t53 78t73 61.5t92 40t111 14q80 0 139.5 -27t99 -74t59.5 -109q20 -64 22 -134h-197q-4 84 -38.5 126t-96.5 42q-33 0 -62.5 -15t-51.5 -42.5t-35 -66.5q-13 -38 -13 -86q0 -52 19 -94t51 -71t76 -45t94 -16q51 0 95 16t80 45t63.5 68t47 84 t29.5 95q11 50 11 100l120 82q18 -22 37 -47.5t36.5 -51.5t33.5 -51q17 -25 29 -45q16 23 34 48t36 49t34 46t30 40q38 -44 68 -83q32 -39 56 -79q17 18 35 35.5t32 31.5h273q34 -43 66 -87t64 -87h-331q-12 -16 -29.5 -39.5t-36.5 -51.5t-39 -58t-38 -58q-22 40 -39 73 t-31 58.5t-26 45.5t-26 36q-14 -22 -30 -51.5t-32.5 -65.5t-33 -78t-32.5 -88q-38 92 -68 151.5t-45 90.5q-24 -72 -69.5 -135t-107 -109t-137.5 -73t-161 -27q-112 0 -194 32t-136 87t-80 128t-26 155z" />
<glyph unicode="&#x2000;" horiz-adv-x="820" />
<glyph unicode="&#x2001;" horiz-adv-x="1640" />
<glyph unicode="&#x2002;" horiz-adv-x="820" />
<glyph unicode="&#x2003;" horiz-adv-x="1640" />
<glyph unicode="&#x2004;" horiz-adv-x="546" />
<glyph unicode="&#x2005;" horiz-adv-x="410" />
<glyph unicode="&#x2006;" horiz-adv-x="273" />
<glyph unicode="&#x2007;" horiz-adv-x="273" />
<glyph unicode="&#x2008;" horiz-adv-x="205" />
<glyph unicode="&#x2009;" horiz-adv-x="328" />
<glyph unicode="&#x200a;" horiz-adv-x="91" />
<glyph unicode="&#x200b;" />
<glyph unicode="&#x2010;" horiz-adv-x="755" d="M68 293v151h620v-151h-620z" />
<glyph unicode="&#x2011;" horiz-adv-x="755" d="M68 293v151h620v-151h-620z" />
<glyph unicode="&#x2012;" horiz-adv-x="755" d="M68 293v151h620v-151h-620z" />
<glyph unicode="&#x2013;" horiz-adv-x="794" d="M47 293v151h701v-151h-701z" />
<glyph unicode="&#x2014;" horiz-adv-x="1456" d="M47 293v151h1362v-151h-1362z" />
<glyph unicode="&#x2018;" horiz-adv-x="444" d="M121 568v155q0 42 11.5 82t36 73t63 56.5t92.5 33.5v-106q-18 -6 -32 -13.5t-23.5 -19t-15 -27.5t-7.5 -40h78v-194h-203z" />
<glyph unicode="&#x2019;" horiz-adv-x="444" d="M121 563v103q37 12 55 36t22 68h-77v194h203v-155q0 -42 -11 -82.5t-35 -73.5t-62.5 -57t-94.5 -33z" />
<glyph unicode="&#x201c;" horiz-adv-x="641" d="M78 568v155q0 43 11.5 83t36.5 73t64 57q38 24 94 32v-106q-37 -9 -55.5 -33.5t-23.5 -66.5h79v-194h-206zM356 568v155q0 43 12 83t37 73t64 57t94 32v-106q-37 -9 -56 -33.5t-23 -66.5h79v-194h-207z" />
<glyph unicode="&#x201d;" horiz-adv-x="641" d="M78 563v103q37 12 55 36q19 24 23 68h-78v194h206v-155q0 -42 -11 -82.5t-36 -73.5t-64 -57t-95 -33zM356 563v101q34 14 55 38.5t25 67.5h-80v194h207v-155q0 -42 -11.5 -82.5t-36.5 -73.5t-64 -57t-95 -33z" />
<glyph unicode="&#x2022;" horiz-adv-x="663" d="M66 473q0 54 21 102.5t57.5 84.5t85 57t104.5 21q54 0 102 -21t84 -57t57 -84t21 -103q0 -56 -21 -104.5t-57 -84.5t-84 -57.5t-102 -21.5q-56 0 -104.5 21.5t-85 57.5t-57.5 84.5t-21 104.5z" />
<glyph unicode="&#x202f;" horiz-adv-x="328" />
<glyph unicode="&#x205f;" horiz-adv-x="410" />
<glyph unicode="&#x20ac;" horiz-adv-x="1216" d="M49 286v142h123q-1 6 -1.5 12t-0.5 14v19v27h-121v139h145q22 72 65 131.5t105 102.5t142.5 67t179.5 24q46 0 98 -6.5t103 -22.5t99 -42.5t87 -66.5t67 -94.5t40 -125.5h-218q-12 38 -35 70t-56 55t-77 36t-98 13q-48 0 -89.5 -9t-76.5 -26t-62.5 -44t-45.5 -62h276 v-139h-313q-1 -4 -1 -10t-0.5 -14t-0.5 -19.5v-28.5h313v-142h-266q18 -27 42 -49.5t56 -38.5t72 -25t88 -9q47 0 88.5 11t77 34t62.5 59q28 36 46 88h214q-16 -80 -57.5 -148.5t-104.5 -119t-146 -79.5t-182 -29q-50 0 -100 7t-98 22t-92 39.5t-81.5 58.5t-67 78.5 t-49.5 100.5h-149z" />
<glyph unicode="&#x2122;" horiz-adv-x="1325" d="M35 830v114h467v-114h-164v-460h-140v460h-163zM586 370v574h178l137 -358l139 358h178v-574h-132l-2 368l-136 -368h-94l-137 368v-368h-131z" />
<glyph unicode="&#x25cc;" horiz-adv-x="887" d="M207 381l75 37q-3 -17 -3.5 -36.5t3.5 -37.5zM270 215l31 76q11 -17 23 -30t28 -23zM284 547l78 -27q-20 -9 -35 -21t-24 -26zM406 540l36 76l35 -74q-18 4 -37.5 3t-33.5 -5zM408 215q18 -4 33 -4t36 6l-35 -73zM530 522l86 25l-34 -76q-9 16 -23.5 29t-28.5 22z M532 236q16 11 28 22q12 10 22 26l22 -71zM606 346q6 17 6 34q0 18 -4 36l72 -37z" />
<glyph unicode="&#xe000;" horiz-adv-x="692" d="M0 0v692h692v-692h-692z" />
<glyph unicode="&#xf700;" horiz-adv-x="901" d="M14 514q6 43 26 81.5t50.5 71.5t70.5 59t86.5 44.5t99.5 28.5t109 10q46 0 95 -5.5t96 -19.5q14 10 22.5 31t10.5 41h211q-2 -23 -7.5 -47.5t-15.5 -47.5t-24 -44t-31 -37q24 -30 36.5 -67t12.5 -85q0 -34 -11 -74t-30.5 -84.5t-45 -91.5t-54.5 -94.5t-59 -94t-58 -89.5 h-234l-176 295h-104v170h250l154 -252q26 39 52 81t46.5 82t33.5 76.5t13 65.5q0 32 -16.5 55t-43.5 38t-61 21.5t-70 6.5q-32 0 -65.5 -7.5t-62.5 -23.5t-50.5 -39t-29.5 -55h-226z" />
<glyph unicode="&#xf70f;" horiz-adv-x="1399" d="M26 514q24 59 64 112.5t95.5 93.5t125.5 63.5t154 23.5q53 0 102 -7.5t91 -24.5t77 -43t60 -64t39 -87t14 -112v-201q0 -30 10 -52t28 -37t43 -22t54 -7q28 0 52 7t41 22t26.5 38t9.5 53v522h207v-522q0 -56 -14 -98t-38.5 -73.5t-57 -53t-70 -34.5t-78 -18t-80.5 -5 q-42 0 -83.5 5.5t-79.5 18.5t-71 34.5t-57 52.5t-37.5 73t-13.5 96l2 193q0 39 -10.5 71t-32.5 54t-55 34.5t-78 12.5q-30 0 -57.5 -4.5t-52.5 -14.5t-46 -27t-39 -42q26 -25 42 -65t16 -101v-215h108v-164h-315v396q0 23 -9.5 41.5t-23.5 33.5t-30 25q-18 11 -32 18z" />
<glyph unicode="&#xf718;" d="M-326 -346h254v-326h-178v168h-76v158z" />
<glyph unicode="&#xf719;" d="M-631 -348h250v-125q0 -32 16.5 -49.5t48.5 -17.5q31 0 48.5 17t17.5 50v125h178v-125q0 -44 -13.5 -84.5t-43 -71t-75.5 -48t-112 -17.5q-58 0 -102 13t-74 38t-47 59.5t-22 77.5h-70v158z" />
<glyph unicode="&#xf71a;" d="M-305 -459q0 26 9.5 48.5t26.5 39.5t40 27t49 10q24 0 46.5 -10t39 -27t26.5 -40t10 -48q0 -26 -10 -48.5t-26.5 -39.5t-39 -27t-46.5 -10q-26 0 -49 10t-40 27t-26.5 39.5t-9.5 48.5z" />
<glyph unicode="&#xf71d;" horiz-adv-x="1208" d="M26 792h226l137 -485l135 383h182l138 -383l86 293q0 36 -27.5 51t-81.5 15v124q38 2 68.5 8.5t52.5 20t35 34.5t17 52h228q-4 -42 -16 -76t-28.5 -59.5t-37.5 -43.5q-20 -20 -42 -30q18 -20 24 -44t6 -56q0 -10 -1 -20.5t-3.5 -23t-7 -27.5l-10.5 -35l-156 -490h-192 l-144 406l-145 -406h-191z" />
<glyph unicode="&#xf880;" horiz-adv-x="983" d="M51 422q0 61 16 117.5t44.5 105t69.5 89t90 68.5t106 44t119 16q60 0 116 -16t105 -44t89 -68.5t68 -89t44 -105t16 -117.5t-16 -117.5t-44 -105.5t-68 -89t-89 -68.5t-105 -44t-116 -15.5q-62 0 -119 15.5t-106 44t-90 68.5t-69.5 89t-44.5 105.5t-16 117.5zM190 426 q0 -62 24 -117.5t65 -97t97 -66t120 -24.5q62 0 116 24.5t95 66t65 97t24 117.5t-24 117t-65 96t-95 65q-54 23 -116 23q-64 0 -120 -23.5t-97 -64.5t-65 -96t-24 -117zM260 426q0 47 19 89t51 73.5t74 50.5q44 19 92 19q47 0 88.5 -19t72.5 -50.5t49.5 -73.5t18.5 -89 q0 -48 -18.5 -91t-49.5 -74.5t-73 -50t-88 -18.5q-48 0 -91 18.5t-75 50t-51 74.5t-19 91zM284 1198h170l-14 -252h-143zM385 426q0 -23 8.5 -43.5t23 -35.5t35 -23t44.5 -8q22 0 40.5 8t33 23t22.5 35.5t8 43.5q0 22 -8 41t-22.5 34t-33.5 23q-18 8 -40 8q-24 0 -44.5 -8 t-35 -23t-23 -34t-8.5 -41zM530 1198h172l-12 -252h-143z" />
<glyph unicode="&#xf881;" horiz-adv-x="1454" d="M24 514q33 74 83.5 129t112.5 91t134 54.5t150 18.5q39 0 78.5 -4.5t78 -14.5t74 -25t66.5 -36q49 44 111 62t134 18q66 0 127 -18t107 -53.5t73 -89.5t27 -124v-782h-206v760q0 32 -10 56.5t-26.5 41t-40 25t-51.5 8.5q-24 0 -45 -5.5t-38 -16.5t-28 -27t-13 -37 q3 -16 5.5 -34.5t2.5 -41.5v-729h-209v721q0 38 -15 69.5t-43 53.5t-68.5 34.5t-90.5 12.5q-32 0 -64.5 -5.5t-63 -16.5t-56.5 -27q-28 -18 -48 -40q24 -24 40 -64t16 -101v-213h106v-164h-313v396q0 22 -9.5 40.5t-24 33.5t-31.5 26q-18 11 -32 18z" />
<glyph unicode="&#xf882;" horiz-adv-x="1483" d="M66 0v164h108v232q0 23 -9.5 41.5t-24 33.5t-31.5 25.5t-31 17.5q32 74 81 129t109.5 91t131 54.5t145.5 18.5q38 0 76.5 -5.5t75.5 -15.5t71 -24t64 -33q50 37 112.5 57.5t130.5 20.5t128.5 -18t107 -53.5t73.5 -88.5t27 -123v-782h-209v758q0 32 -9.5 56.5t-26 41 t-40.5 25t-51 8.5q-24 0 -45.5 -5.5t-38.5 -16.5t-28 -27t-13 -37q3 -16 5.5 -34.5t2.5 -41.5v-729h-206v721q0 39 -15 70.5t-41.5 53.5t-65 34t-85.5 12q-32 0 -63.5 -4t-60.5 -13.5t-54 -26.5t-45 -42q26 -25 41.5 -65t15.5 -101v-379h-313z" />
<glyph d="M-738 922q-2 42 7 83t28 75t49 57t72 27q14 68 79 102t179 32v-149q-33 0 -53.5 -4.5t-33 -13t-17.5 -21.5q-4 -12 -4 -30v-50h-56q-20 0 -33.5 -8t-21.5 -22t-11 -34t-3 -44h-181z" />
<glyph horiz-adv-x="1024" d="M60 0v170h106v226q0 23 -9 41.5t-23 33.5t-31 25.5t-31 17.5q32 74 80 129t109 91t132 54.5t145 18.5q52 0 103 -7.5t97 -24.5t85 -44t67 -64t44 -86.5t16 -111.5v-749h-188q-22 23 -49 39.5t-56 27.5t-61 16t-64 5q-44 0 -88 -9t-83 -25t-72 -38t-55 -48v193 q32 24 68 41t74 28t78 16.5t80 5.5q56 0 109 -10t101 -30v529q0 39 -14.5 70.5t-41 53.5t-64.5 34t-86 12q-32 0 -63.5 -4t-60.5 -13.5t-54.5 -26.5t-43.5 -42q24 -25 40 -65.5t16 -100.5v-379h-312zM719 -459q0 26 9.5 48.5t26.5 39.5t40 27t49 10q24 0 46.5 -10t39 -27 t26.5 -40t10 -48q0 -26 -10 -48.5t-26.5 -39.5t-39 -27t-46.5 -10q-26 0 -49 10t-40 27t-26.5 39.5t-9.5 48.5z" />
<glyph horiz-adv-x="1024" d="M60 0v170h106v226q0 23 -9 41.5t-23 33.5t-31 25.5t-31 17.5q32 74 80 129t109 91t132 54.5t145 18.5q52 0 103 -7.5t97 -24.5t85 -44t67 -64t44 -86.5t16 -111.5v-749h-200q-4 17 -10.5 32.5t-16 27.5t-22.5 19t-29 7q-17 0 -31 -8t-24 -20t-15 -28q-6 -14 -6 -30h-184 q0 13 -4.5 28t-13 28.5t-21 22.5t-29.5 9q-16 0 -28 -8.5t-20.5 -21t-13 -28.5t-4.5 -30h-188q0 57 20.5 101.5t55 75.5t79.5 47.5t93 16.5q27 0 51 -5.5t44.5 -14t37.5 -20t29 -23.5q12 12 28 22t34.5 18t40 12.5t46.5 4.5q26 0 51 -7q26 -8 44 -18v531q0 39 -14.5 70.5 t-41 53.5t-64.5 34t-86 12q-32 0 -63.5 -4t-60.5 -13.5t-54.5 -26.5t-43.5 -42q24 -25 40 -65.5t16 -100.5v-379h-312zM719 -459q0 26 9.5 48.5t26.5 39.5t40 27t49 10q24 0 46.5 -10t39 -27t26.5 -40t10 -48q0 -26 -10 -48.5t-26.5 -39.5t-39 -27t-46.5 -10q-26 0 -49 10 t-40 27t-26.5 39.5t-9.5 48.5z" />
<glyph horiz-adv-x="1024" d="M60 0v170h106v226q0 23 -9 41.5t-23 33.5t-31 25.5t-31 17.5q32 74 80 129t109 91t132 54.5t145 18.5q52 0 103 -7.5t97 -24.5t85 -44t67 -64t44 -86.5t16 -111.5v-749h-188q-22 23 -49 39.5t-56 27.5t-61 16t-64 5q-44 0 -88 -9t-83 -25t-72 -38t-55 -48v193 q32 24 68 41t74 28t78 16.5t80 5.5q56 0 109 -10t101 -30v529q0 39 -14.5 70.5t-41 53.5t-64.5 34t-86 12q-32 0 -63.5 -4t-60.5 -13.5t-54.5 -26.5t-43.5 -42q24 -25 40 -65.5t16 -100.5v-379h-312zM696 -346h254v-326h-178v168h-76v158z" />
<glyph horiz-adv-x="1024" d="M60 0v170h106v226q0 23 -9 41.5t-23 33.5t-31 25.5t-31 17.5q32 74 80 129t109 91t132 54.5t145 18.5q52 0 103 -7.5t97 -24.5t85 -44t67 -64t44 -86.5t16 -111.5v-749h-200q-4 17 -10.5 32.5t-16 27.5t-22.5 19t-29 7q-17 0 -31 -8t-24 -20t-15 -28q-6 -14 -6 -30h-184 q0 13 -4.5 28t-13 28.5t-21 22.5t-29.5 9q-16 0 -28 -8.5t-20.5 -21t-13 -28.5t-4.5 -30h-188q0 57 20.5 101.5t55 75.5t79.5 47.5t93 16.5q27 0 51 -5.5t44.5 -14t37.5 -20t29 -23.5q12 12 28 22t34.5 18t40 12.5t46.5 4.5q26 0 51 -7q26 -8 44 -18v531q0 39 -14.5 70.5 t-41 53.5t-64.5 34t-86 12q-32 0 -63.5 -4t-60.5 -13.5t-54.5 -26.5t-43.5 -42q24 -25 40 -65.5t16 -100.5v-379h-312zM696 -346h254v-326h-178v168h-76v158z" />
<glyph horiz-adv-x="768" d="M-702 1065q0 37 13.5 69t37 56t55.5 37.5t70 13.5q36 0 68 -13.5t57 -37.5t39 -56t14 -69t-14 -69t-39 -56t-57 -37.5t-68 -13.5q-37 0 -69.5 13.5t-56 37.5t-37 56t-13.5 69zM-582 1065q0 -10 5 -20.5t12.5 -18t17.5 -12.5q11 -4 21 -4q12 0 22 4.5t17 12t11.5 17.5 t4.5 21q0 12 -4.5 21.5t-11.5 17.5t-17 12t-22 4q-10 0 -20.5 -4t-18 -12t-12.5 -17.5t-5 -21.5zM20 500q0 49 14 91t38 76.5t56.5 60.5t70 44t79.5 28q40 9 82 9q68 0 129 -18t107 -53.5t73 -89.5t27 -124v-524h-206v500q0 33 -10 57.5t-27 41.5t-41 25q-24 9 -52 9 q-26 0 -48 -9.5t-39 -26.5t-27 -42t-12 -55h-214z" />
<glyph horiz-adv-x="768" d="M-702 1065q0 37 13.5 69t37 56t55.5 37.5t70 13.5q36 0 68 -13.5t57 -37.5t39 -56t14 -69t-14 -69t-39 -56t-57 -37.5t-68 -13.5q-37 0 -69.5 13.5t-56 37.5t-37 56t-13.5 69zM-582 1065q0 -10 5 -20.5t12.5 -18t17.5 -12.5q11 -4 21 -4q12 0 22 4.5t17 12t11.5 17.5 t4.5 21q0 12 -4.5 21.5t-11.5 17.5t-17 12t-22 4q-10 0 -20.5 -4t-18 -12t-12.5 -17.5t-5 -21.5zM20 500q0 49 14 91t38 76.5t56.5 60.5t70 44t79.5 28q40 9 82 9q68 0 129 -18t107 -53.5t73 -89.5t27 -124v-524h-206v500q0 33 -10 57.5t-27 41.5t-41 25q-24 9 -52 9 q-26 0 -48 -9.5t-39 -26.5t-27 -42t-12 -55h-214z" />
<glyph horiz-adv-x="1024" d="M60 0v170h106v226q0 23 -9 41.5t-23 33.5t-31 25.5t-31 17.5q32 74 80 129t109 91t132 54.5t145 18.5q52 0 103 -7.5t97 -24.5t85 -44t67 -64t44 -86.5t16 -111.5v-749h-188q-22 23 -49 39.5t-56 27.5t-61 16t-64 5q-44 0 -88 -9t-83 -25t-72 -38t-55 -48v193 q32 24 68 41t74 28t78 16.5t80 5.5q56 0 109 -10t101 -30v529q0 39 -14.5 70.5t-41 53.5t-64.5 34t-86 12q-32 0 -63.5 -4t-60.5 -13.5t-54.5 -26.5t-43.5 -42q24 -25 40 -65.5t16 -100.5v-379h-312zM391 -348h250v-125q0 -32 16.5 -49.5t48.5 -17.5q31 0 48.5 17t17.5 50 v125h178v-125q0 -44 -13.5 -84.5t-43 -71t-75.5 -48t-112 -17.5q-58 0 -102 13t-74 38t-47 59.5t-22 77.5h-70v158z" />
<glyph horiz-adv-x="1024" d="M60 0v170h106v226q0 23 -9 41.5t-23 33.5t-31 25.5t-31 17.5q32 74 80 129t109 91t132 54.5t145 18.5q52 0 103 -7.5t97 -24.5t85 -44t67 -64t44 -86.5t16 -111.5v-749h-200q-4 17 -10.5 32.5t-16 27.5t-22.5 19t-29 7q-17 0 -31 -8t-24 -20t-15 -28q-6 -14 -6 -30h-184 q0 13 -4.5 28t-13 28.5t-21 22.5t-29.5 9q-16 0 -28 -8.5t-20.5 -21t-13 -28.5t-4.5 -30h-188q0 57 20.5 101.5t55 75.5t79.5 47.5t93 16.5q27 0 51 -5.5t44.5 -14t37.5 -20t29 -23.5q12 12 28 22t34.5 18t40 12.5t46.5 4.5q26 0 51 -7q26 -8 44 -18v531q0 39 -14.5 70.5 t-41 53.5t-64.5 34t-86 12q-32 0 -63.5 -4t-60.5 -13.5t-54.5 -26.5t-43.5 -42q24 -25 40 -65.5t16 -100.5v-379h-312zM391 -348h250v-125q0 -32 16.5 -49.5t48.5 -17.5q31 0 48.5 17t17.5 50v125h178v-125q0 -44 -13.5 -84.5t-43 -71t-75.5 -48t-112 -17.5q-58 0 -102 13 t-74 38t-47 59.5t-22 77.5h-70v158z" />
<glyph d="M-830 922l86 158h674v-158h-760z" />
<glyph d="M-832 922l86 158h492v120h182v-278h-760z" />
<glyph d="M-832 922l86 158h378q0 32 12.5 59t33 47t48.5 31.5t59 11.5q32 0 60.5 -12t48.5 -32.5t32 -49t12 -60.5t-12 -60.5t-32 -48.5t-48.5 -32t-60.5 -12h-617zM-262 1075q0 -9 4 -17t10.5 -14.5t15 -10t17.5 -3.5t17.5 3.5t15 10t10.5 14.5t4 17q0 10 -4 18.5t-10.5 15 t-15 10t-17.5 3.5t-17.5 -3.5t-15 -10t-10.5 -15t-4 -18.5z" />
<glyph d="M-832 922l86 158h262v120h172v-120h66v120h174v-278h-760z" />
<glyph d="M-1157 920l88 157h741v-157h-829z" />
<glyph d="M-1155 920l86 157h561v121h180v-278h-827z" />
<glyph d="M-1151 920l82 157h469q0 32 13 59t34 47.5t49 32t60 11.5t60 -12t48.5 -32.5t32.5 -49t12 -60.5t-12 -60.5t-32.5 -48.5t-48.5 -32t-60 -12h-707zM-492 1073q0 -18 14 -31.5t34 -13.5q18 0 31 13t13 32q0 20 -13 33.5t-31 13.5q-20 0 -34 -13.5t-14 -33.5z" />
<glyph d="M-1153 920l82 157h331v121h172v-121h66v121h174v-278h-825z" />
<glyph d="M-506 1290v262h178v-262h-178z" />
<glyph d="M-796 1415v145h233v-120q42 2 71.5 12t48 26t27 37t8.5 45h172q0 -52 -21 -100.5t-65 -86t-112 -60.5t-162 -23h-131v125h-69z" />
<glyph d="M-752 1288q-4 60 7 106t33 77t51.5 46t62.5 15q19 0 34.5 -5t27 -13t20.5 -18q9 -12 16 -22q9 10 20 21t23.5 19t28.5 13q14 5 32 5q44 0 73 -20t47 -54q5 7 10.5 17.5t10 23.5t7 27t0.5 28h156q0 -42 -15 -84.5t-40 -79t-59 -63.5q-32 -27 -70 -39h-110q0 21 -1 38 t-4 29t-10 18.5t-17 6.5q-12 0 -21 -13t-9 -44h-100q0 32 -8 44.5t-20 12.5t-19 -7t-10.5 -20t-4 -30t-0.5 -35h-142z" />
<glyph d="M-628 1388v152h122v100h178v-100h123v-152h-123v-100h-178v100h-122z" />
<glyph d="M-1138 922l86 158h980v-158h-1066z" />
<glyph d="M-1138 922l86 158h798v120h182v-278h-1066z" />
<glyph d="M-1138 922l86 158h684q0 32 12.5 59t33 47t48.5 31.5t59 11.5q32 0 60.5 -12t48.5 -32.5t32 -49t12 -60.5t-12 -60.5t-32 -48.5t-48.5 -32t-60.5 -12h-923zM-262 1075q0 -9 4 -17t10.5 -14.5t15 -10t17.5 -3.5t17.5 3.5t15 10t10.5 14.5t4 17q0 10 -4 18.5t-10.5 15 t-15 10t-17.5 3.5t-17.5 -3.5t-15 -10t-10.5 -15t-4 -18.5z" />
<glyph d="M-1138 922l86 158h568v120h172v-120h66v120h174v-278h-1066z" />
<glyph d="M-250 1208v262h178v-262h-178z" />
<glyph d="M-520 1331v145h234v-120q42 2 71 12t48 26t27.5 37t8.5 45h172q0 -52 -21.5 -100.5t-65.5 -86t-112 -60.5t-162 -23h-130v125h-70z" />
<glyph d="M-547 1206q-4 60 7.5 106t32.5 77t51 46t63 15q19 0 34 -5t27 -13t21 -18t16 -21q9 10 20 20.5t24 18.5t28 13t33 5q44 0 73 -20t45 -54q5 7 11 17.5t10.5 23.5t6.5 27t1 29h155q0 -42 -14.5 -84.5t-39.5 -79.5t-58.5 -64t-71.5 -39h-108q0 21 -1 38.5t-5 29.5t-10 18.5 t-17 6.5q-12 0 -21.5 -13.5t-9.5 -43.5h-98q0 32 -8 44.5t-21 12.5q-12 0 -19.5 -7.5t-10.5 -20.5t-3 -29q-1 -18 -1 -36h-142z" />
<glyph d="M-372 1306v152h122v100h178v-100h123v-152h-123v-100h-178v100h-122z" />
<glyph d="M-526 1208v262h178v-262h-178z" />
<glyph d="M-729 1331v145h233v-120q42 2 71.5 12t48 26t27.5 37t9 45h172q0 -52 -21 -100.5t-65 -86t-112 -60.5t-162 -23h-132v125h-69z" />
<glyph d="M-752 1206q-4 60 7.5 106t33 77t51.5 46t62 15q19 0 34.5 -5t27.5 -13t21 -18q9 -12 15 -22q9 10 20.5 21t24 19t28 13t32.5 5q44 0 73 -20t46 -54q5 7 10.5 17.5t10.5 23.5t7 27t0 28h156q0 -42 -15 -84.5t-40 -79t-58 -63.5t-71 -39h-109q0 21 -1 38t-4.5 29t-9.5 19 q-8 6 -18 6q-12 0 -21 -13t-9 -44h-99q0 32 -8 45q-9 12 -21 12t-19 -7t-10 -20t-4 -30t-1 -35h-142z" />
<glyph d="M-649 1306v152h123v100h178v-100h122v-152h-122v-100h-178v100h-123z" />
<glyph d="M-522 -92h254v-346h-178v188h-76v158z" />
<glyph d="M-723 -92h250v-125q0 -32 16.5 -49.5t48.5 -17.5q31 0 48.5 17t17.5 50v125h178v-125q0 -44 -13.5 -84.5t-43 -71t-75.5 -48t-112 -17.5q-58 0 -102 13t-74 38t-48 59q-18 35 -22 78h-69v158z" />
<glyph d="M-524 -213q0 26 9.5 48.5t26.5 39.5t39.5 27t48.5 10q24 0 47 -10t40 -27t27 -40t10 -48q0 -26 -10 -48.5t-27 -39.5t-39 -27q-24 -10 -48 -10q-26 0 -48.5 10t-39.5 27t-26.5 39.5t-9.5 48.5z" />
<glyph d="M-536 -92h254v-346h-179v188h-75v158z" />
<glyph d="M-844 -92h250v-131q0 -32 16 -50q18 -18 50 -18q31 0 48 17.5t17 50.5v131h179v-125q0 -44 -14 -84.5t-43 -71t-76 -48t-111 -17.5q-58 0 -102 13t-75 38t-48 59.5t-21 77.5h-70v158z" />
<glyph d="M-508 -213q0 26 10 48.5t27 39.5t39.5 27t48.5 10q24 0 46.5 -10t39.5 -27t27 -40t10 -48q0 -26 -10 -48.5t-27 -39.5t-39 -27t-47 -10q-26 0 -48.5 10t-39.5 27t-27 39.5t-10 48.5z" />
<glyph d="M-631 914v226h181v-71h596v-155h-777z" />
<glyph d="M-465 1290v262h179v-262h-179z" />
<glyph d="M-606 1413v145h234v-120q42 2 71 12t48 26t27.5 37t8.5 45h172q0 -52 -21.5 -100.5t-65.5 -86t-112 -60.5t-162 -23h-130v125h-70z" />
<glyph d="M-650 1288q-4 60 7.5 106t33 77t51.5 46t62 15q19 0 34.5 -5t27.5 -13t21 -18q9 -12 15 -22q9 10 20.5 21t24 19t28 13t32.5 5q44 0 73 -20t46 -54q5 7 10.5 17.5t10.5 23.5t7 27t0 28h156q0 -42 -15 -84.5t-40 -79t-58 -63.5t-71 -39h-109q0 21 -1 38t-4.5 29t-9.5 19 q-8 6 -18 6q-12 0 -21 -13t-9 -44h-99q0 32 -8 45q-9 12 -21 12t-19 -7t-10 -20t-4 -30t-1 -35h-142z" />
<glyph d="M-561 1388v152h123v100h178v-100h123v-152h-123v-100h-178v100h-123z" />
<glyph d="M-596 1290v262h178v-262h-178z" />
<glyph d="M-719 1388v152h123v100h178v-100h122v-152h-122v-100h-178v100h-123z" />
</font>
</defs>
</svg>
