<?xml version="1.0" standalone="no"?>
<!DOCTYPE svg PUBLIC "-//W3C//DTD SVG 1.1//EN" "http://www.w3.org/Graphics/SVG/1.1/DTD/svg11.dtd" >
<svg xmlns="http://www.w3.org/2000/svg">
<metadata></metadata>
<defs>
<font id="DBHelvethaicaX65Med65Med" horiz-adv-x="0" >
<font-face units-per-em="2048" ascent="1638" descent="-410" />
<missing-glyph horiz-adv-x="348" />
<glyph unicode="&#x2b;&#x2d;" horiz-adv-x="839" d="M52 129h734v-129h-733zM52 545h303v231h129v-231h301l1 -129h-301v-232h-129v232h-303z" />
<glyph unicode="&#x2e;&#x2e;&#x2e;" horiz-adv-x="1388" d="M131 -2l1 196h197l-1 -196h-197zM592 -2l2 196h196l-2 -196h-196zM1054 -2l2 196h197l-1 -196h-198z" />
<glyph unicode="&#x3c;&#x3d;" horiz-adv-x="893" d="M74 123h741l2 -123h-741zM74 510v112l742 334v-132l-568 -259l568 -256v-131z" />
<glyph unicode="&#x3e;&#x3d;" horiz-adv-x="893" d="M74 123h741l2 -123h-741zM74 178l2 131l566 256l-568 259l1 132l741 -334l-1 -112z" />
<glyph unicode=" "  horiz-adv-x="348" />
<glyph unicode="&#x09;" horiz-adv-x="348" />
<glyph unicode="&#xa0;" horiz-adv-x="348" />
<glyph unicode="!" horiz-adv-x="518" d="M158 190h199l1 -190h-198zM168 1000h180l2 -314l-38 -412h-106l-36 412z" />
<glyph unicode="&#x22;" horiz-adv-x="612" d="M142 635v365h118v-365h-118zM350 635v365h120l-1 -365h-119z" />
<glyph unicode="#" horiz-adv-x="821" d="M50 280l1 136h151l22 168h-138l1 133h156l40 283h135l-40 -283h133l39 283h136l-38 -283h121l-1 -133h-137l-23 -168h120v-136h-141l-38 -280h-139l40 280h-129l-41 -280h-136l38 280h-132zM340 416h130l22 168h-129z" />
<glyph unicode="$" horiz-adv-x="809" d="M33 336h166q2 -85 42.5 -137t108.5 -66v309q-68 19 -122 41.5t-91 54.5t-56 76t-19 105q0 63 23 115.5t62 92t91 63.5t112 30v96h121v-96q114 -18 181.5 -96t95.5 -212h-164q-13 60 -40.5 98t-71.5 52l-1 -284q34 -6 70.5 -18.5t69.5 -30t63 -41.5t52 -54t34 -67t12 -81 q0 -64 -22 -118t-62 -94t-95 -64t-122 -30l1 -117h-122l2 119q-70 9 -126 36.5t-96.5 72t-65 106t-31.5 139.5zM235 733q0 -29 7.5 -48.5t22 -33t36 -22.5t50.5 -17l1 256q-26 -6 -48 -17t-37 -27.5t-23.5 -39.5t-8.5 -51zM472 127q28 4 52 16t41.5 30.5t27 44.5t9.5 58 q0 28 -10 50t-27 37.5t-41 26.5q-24 12 -52 20v-283z" />
<glyph unicode="%" horiz-adv-x="1409" d="M134 712q0 38 5 75t17 70t30 60t44 47t61 31t79 11q69 0 115.5 -23.5t74 -63t39 -92.5t11.5 -112q0 -38 -6 -74t-18 -68.5t-31 -59.5t-46 -47t-61.5 -31t-77.5 -11q-64 0 -109 22t-73 61t-41 92t-13 113zM274 715q0 -28 3 -59.5t13 -57.5t28.5 -44t49.5 -18q22 0 37.5 8 t27 22t18.5 31.5t11 37.5t5 40.5t1 39.5q0 27 -2.5 58t-12.5 58t-29.5 44.5t-53.5 17.5q-30 0 -49 -17.5t-29 -44.5t-14 -58t-4 -58zM312 -20l618 1040h162l-614 -1040h-166zM798 278q0 58 12 112t40.5 94.5t75 65t114.5 24.5t113.5 -23.5t72.5 -63t38.5 -92.5t11.5 -113 q0 -57 -13.5 -109.5t-42 -92.5t-73 -64t-107.5 -24q-66 0 -112 22.5t-75 61.5t-42 91t-13 111zM940 280q0 -26 3 -56.5t13 -57t29 -44.5t51 -18t51 17t29.5 43t14 58t3.5 60q0 27 -3 58.5t-13 58.5t-29 44.5t-49 17.5q-22 0 -37.5 -8.5t-27 -22t-18.5 -32t-11 -38.5t-5 -41 t-1 -39z" />
<glyph unicode="&#x26;" horiz-adv-x="915" d="M48 262q0 58 17 102t46.5 78t70 61.5t86.5 53.5q-19 24 -36.5 48.5t-31.5 51.5t-22.5 56.5t-8.5 62.5q0 43 15.5 82t46.5 68.5t75 47.5q46 17 104 17q50 0 97 -13.5t83 -40.5t58 -67t22 -92q0 -43 -14.5 -80.5t-38.5 -69.5t-55.5 -58t-67.5 -46l142 -168q10 31 16 62 q4 32 8 68h150q-5 -32 -9 -57.5t-8 -46t-8.5 -38.5t-10 -34.5t-13 -34t-17.5 -37.5l214 -238h-204l-95 106q-25 -31 -57 -53.5t-69 -38t-77 -23t-80 -7.5q-72 0 -124 15t-88.5 39t-59 55t-35.5 62t-17 59t-4 48zM210 264q0 -33 14.5 -59.5t38 -45t53.5 -28.5q32 -10 64 -10 q59 0 106 24t81 68q-53 59 -106 122t-103 119q-30 -18 -57 -36t-47 -41t-32 -50t-12 -63zM325 772q0 -17 6.5 -34.5t17.5 -35.5t25 -36q14 -20 30 -38q18 13 38 27.5t36 31.5t26 38q12 21 12 47q0 17 -7.5 32.5t-20 26.5t-30.5 18t-40 7q-18 0 -34.5 -5t-29.5 -15.5t-21 -26 t-8 -37.5z" />
<glyph unicode="'" horiz-adv-x="405" d="M142 635v365h118v-365h-118z" />
<glyph unicode="(" horiz-adv-x="401" d="M61 377q0 84 13.5 168.5t41.5 166.5t69 161t97 151h137q-51 -82 -87 -161t-58.5 -159t-33 -161t-9.5 -166q0 -86 10 -167t32.5 -160.5t58.5 -159.5t86 -162h-138q-49 76 -89.5 153t-69.5 157t-44.5 164.5t-15.5 174.5z" />
<glyph unicode=")" horiz-adv-x="401" d="M-19 1024h137q56 -72 97 -151t69 -161t42 -167t14 -168q0 -90 -17 -174.5t-46 -164.5t-70 -157t-90 -153h-135q50 82 85.5 162t58 159.5t32.5 160.5q12 82 12 167t-11 166t-34 161t-58.5 159t-85.5 161z" />
<glyph unicode="*" horiz-adv-x="528" d="M28 811l36 103l144 -52l-1 148h111v-148l139 52l42 -103l-147 -51l90 -123l-92 -61l-86 124l-86 -124l-94 61l86 123z" />
<glyph unicode="+" horiz-adv-x="860" d="M61 442h301l2 304h133l-1 -304h298l2 -133h-299l-1 -301h-134l2 301h-301z" />
<glyph unicode="," horiz-adv-x="405" d="M102 -2l2 196h196v-161q0 -43 -11 -82t-35 -72t-60.5 -58.5t-87.5 -41.5l-2 115q20 7 35 18.5t25 25.5t15 30t5 30h-82z" />
<glyph unicode="-" horiz-adv-x="663" d="M61 442h537l2 -133h-537z" />
<glyph unicode="." horiz-adv-x="405" d="M102 -2l2 196h196l-1 -196h-197z" />
<glyph unicode="/" horiz-adv-x="528" d="M-18 -20l408 1044h156l-415 -1044h-149z" />
<glyph unicode="0" horiz-adv-x="792" d="M43 490q0 40 1.5 82.5t7.5 85.5t16.5 84.5t28 78.5t43.5 69t62 55t84 36t108 13q82 0 140 -23t97 -61t62 -88.5t34.5 -106.5t15 -114.5t3.5 -110.5q0 -42 -2 -86t-7 -88t-16 -85t-28 -78t-43 -68t-62 -54t-84 -35t-110 -12q-61 0 -108.5 12t-83.5 35t-62 54t-43.5 68 t-28 78t-16.5 85t-7.5 88t-1.5 86zM213 490q0 -34 1.5 -74t6.5 -80t16 -77t31 -66t51 -46.5t75 -17.5q45 0 76.5 17.5t51.5 46.5t31 66t16 77t6 80t1 74q0 33 -1.5 72.5t-7.5 79.5t-17.5 77.5t-31.5 66.5t-50 46.5t-74 17.5q-42 0 -72 -17.5t-50 -46.5t-32 -66.5t-18 -77.5 t-7.5 -79.5t-1.5 -72.5z" />
<glyph unicode="1" horiz-adv-x="792" d="M102 645l2 145q53 3 98.5 10.5t81.5 26.5t61 54.5t37 95.5h143l1 -977h-162v688q-49 -23 -113.5 -32.5t-148.5 -10.5z" />
<glyph unicode="2" horiz-adv-x="792" d="M33 0q6 61 20 110.5t34.5 90t47.5 73t57 60t63 50.5t65 44q62 40 106 71t73 60t43 61t14 74q0 34 -13 62t-35 47.5t-51 30t-63 10.5q-46 0 -79 -20t-54 -53t-30 -75q-9 -44 -6 -88h-164q-5 54 3 104t27.5 92t49.5 76t69.5 58.5t87 37.5t102.5 13q68 0 128 -19.5 t105 -57.5t70.5 -93t25.5 -127q0 -46 -10.5 -84.5t-28 -71t-41.5 -59.5t-51.5 -49t-57.5 -42q-30 -19 -58 -36q-40 -24 -79 -49t-73 -50.5t-59 -52t-36 -52.5h487l1 -146h-690z" />
<glyph unicode="3" horiz-adv-x="792" d="M38 322h168q0 -46 11 -83t32 -62.5t54 -39.5t76 -14q42 0 77 11.5t60 32t38 50.5q14 29 14 67q0 39 -14 69t-39 49.5t-59 29.5t-74 10h-15.5h-16h-17.5q-9 -2 -21 -2v136h55q32 0 61.5 8.5t51.5 25t35.5 41.5t13.5 57q0 33 -11.5 58.5t-31.5 42.5t-48 26t-60 9 q-42 0 -71 -16t-47 -43t-26 -64t-8 -78h-168q2 77 23 140.5t61 109t99 71t137 25.5q69 0 127.5 -17.5t102 -52.5t68 -88t24.5 -125q0 -60 -27 -105t-75 -79q36 -14 63 -36.5t44.5 -52.5t26.5 -67q8 -38 8 -80q0 -48 -13 -89t-35 -75t-53 -60q-31 -28 -67 -46 q-20 -11 -43.5 -17.5t-48 -10.5t-49.5 -5t-51 -1q-79 0 -142.5 21t-108 64t-67.5 107q-24 64 -24 148z" />
<glyph unicode="4" horiz-adv-x="792" d="M34 205v143l448 629h146l-2 -621h134l1 -151h-133v-205h-161l-1 205h-432zM213 356h251l2 344q-32 -43 -63 -85t-62 -84.5t-62.5 -85.5t-65.5 -89z" />
<glyph unicode="5" horiz-adv-x="792" d="M44 301h164q4 -37 18 -68t37 -54.5t55 -36.5t72 -13q38 0 72 12.5t59 38.5t39 64t14 90q0 42 -14 77.5t-39.5 61t-62 39.5t-80.5 14q-28 0 -51.5 -6.5t-44 -18.5t-39.5 -28q-19 -17 -37 -35l-143 4l99 535h531v-143h-399l-40 -201q34 22 73 29.5t79 7.5q72 0 134 -22 t108 -65t72 -108t26 -151q0 -66 -23 -126.5t-68.5 -107t-114 -74.5t-160.5 -28q-68 0 -128 20t-106 59.5t-73 98t-29 135.5z" />
<glyph unicode="6" horiz-adv-x="792" d="M39 461q0 68 7.5 134.5t25.5 125.5t47 109t71 86t99 57t133 21q65 0 117.5 -17.5t91.5 -52.5t63 -88q22 -52 30 -121h-164q-8 69 -46 100t-102 31q-38 0 -67 -11.5t-51 -31t-37 -46.5t-25 -57t-15.5 -63t-8.5 -65q20 19 46 34.5t54 26.5t58.5 17t61.5 6q78 0 138 -26 t100.5 -70.5t62 -105t21.5 -128.5q0 -38 -7 -78t-23.5 -78t-43 -72t-65.5 -59.5t-91 -40t-119 -14.5q-78 0 -135.5 21t-97.5 56.5t-65 83t-39 100.5t-19.5 108.5t-5.5 107.5zM224 318q0 -40 12 -75t36 -60t58 -39.5t76 -14.5t75 14.5t56 40t34 59.5q11 35 11 73q0 40 -11 75 t-33 61.5t-55 42t-77 15.5t-78 -15t-57 -41t-35 -61t-12 -75z" />
<glyph unicode="7" horiz-adv-x="792" d="M56 826v151h682v-125q-50 -48 -96 -108.5t-86.5 -130t-74 -145.5t-58 -155t-40 -158t-19.5 -155h-182q8 120 37 234.5t76 219t108.5 198.5t133.5 174h-481z" />
<glyph unicode="8" horiz-adv-x="792" d="M42 295q0 78 35 140q35 61 107 97q-25 16 -45 38t-34 48t-21.5 54t-7.5 57q0 64 26 113.5t69 83t99 50.5q56 18 118 18q86 0 147 -23t99.5 -60t57 -84.5t18.5 -97.5q-1 -131 -107 -195q71 -36 109 -97t38 -142q0 -76 -28 -133.5t-75 -97.5t-111 -60t-135 -20 q-76 0 -141.5 19t-113.5 58t-76 98t-28 136zM212 291q0 -39 14 -69t39 -51t59 -31q34 -11 76 -11q40 0 73 11.5t56.5 33.5t36 52t12.5 67q0 33 -14 62t-39 50t-58 33t-69 12q-38 0 -72 -11t-59.5 -31.5t-40 -50.5t-14.5 -66zM246 723q0 -32 12.5 -56.5t34 -41.5t49.5 -25 t58 -8t55.5 9t44 26t29.5 41t11 55q0 30 -11 53.5t-30 38.5t-45 23t-58 8q-28 0 -56 -7.5t-49 -22.5t-33.5 -38t-11.5 -55z" />
<glyph unicode="9" horiz-adv-x="792" d="M40 652q0 38 7 78t24 78t44 71.5t66 59t91 40.5t118 15q59 0 105.5 -12t83.5 -34t63.5 -51t45.5 -64t31.5 -74.5t19 -80.5t9 -82t2.5 -80q0 -68 -7 -134.5t-24 -125.5t-46 -109t-71 -86.5t-100 -56.5t-132 -20q-66 0 -119 17t-92 52t-62 87t-30 122h163q7 -69 45 -100 q39 -31 103 -31q38 0 67 11.5t50.5 31t36.5 46t25.5 57.5t16.5 63q6 34 9 66q-21 -19 -46.5 -34.5t-54 -26.5t-58.5 -17t-60 -6q-78 0 -138 25t-101.5 70t-63 105t-21.5 130zM207 662q0 -40 11 -75.5t33 -62t55.5 -42t77.5 -15.5t78 15t57 41.5t35 61.5t12 75t-12.5 75 t-36 60t-57.5 39t-78 14q-42 0 -74.5 -15t-55 -40t-33.5 -59t-12 -72z" />
<glyph unicode=":" horiz-adv-x="405" d="M102 -2l2 196h196l-1 -196h-197zM103 727h197v-197h-196z" />
<glyph unicode=";" horiz-adv-x="405" d="M102 -2l2 196h196v-161q0 -43 -11 -82t-35 -72t-60.5 -58.5t-87.5 -41.5l-2 115q20 7 35 18.5t25 25.5t15 30t5 30h-82zM103 727h197v-197h-196z" />
<glyph unicode="&#x3c;" horiz-adv-x="913" d="M82 438l747 334l-1 -137l-563 -256l562 -254l1 -135l-745 332z" />
<glyph unicode="=" horiz-adv-x="854" d="M62 172l1 129h727l-2 -129h-726zM62 450l1 130h727l-2 -130h-726z" />
<glyph unicode="&#x3e;" horiz-adv-x="913" d="M82 -10v135l564 254l-564 256l2 137l744 -334v-116z" />
<glyph unicode="?" horiz-adv-x="823" d="M102 658q-2 80 20.5 147.5t66.5 116t106.5 75.5t140.5 27q70 0 127.5 -19.5t99 -57t65.5 -91.5t24 -123q-1 -44 -13.5 -78.5t-32.5 -62t-43 -50t-45 -42.5q-20 -18 -39 -36.5t-33.5 -39t-23.5 -45.5t-9 -57l-1 -74h-164l1 86q2 42 14.5 75.5t31.5 61t41 50.5q24 23 44 44 q16 17 35 36t34.5 41t25 48t8.5 56q-4 30 -15 55t-29.5 43t-44.5 27t-59 9q-45 0 -77 -18t-53 -48t-31 -71q-8 -41 -8 -85h-164zM328 190h199l1 -190h-198z" />
<glyph unicode="@" horiz-adv-x="1163" d="M-46.5 645.5q5.5 65.5 28 122.5t61.5 103.5t90.5 79.5t115 51t136.5 18q66 0 130.5 -14.5t124 -41.5t112.5 -65.5t95 -85.5t71.5 -103t43.5 -118q12 -58 5 -106t-26.5 -86t-50 -67t-65.5 -48t-73 -27t-73 -6q-26 2 -52.5 15t-50.5 40q-27 -24 -60.5 -41.5t-71.5 -17.5 q-40 0 -77 15.5t-67 42.5t-51.5 63.5t-30.5 78.5t-8.5 84t10.5 80t29.5 71t48 57t65 37t81.5 13q16 0 35 -4t39 -13t39 -25q19 -18 34 -42q1 6 2 14t2 17.5t2 18.5t3 16h104l-31 -354q-1 -14 0 -28.5t5.5 -26.5t13 -19.5t23.5 -7.5q19 0 37.5 9t35 25t29.5 38t21 50t9 60 t-7 68q-18 81 -60 142t-101 102.5t-129 62.5q-68 21 -140 21q-58 0 -107.5 -15t-89 -42t-67.5 -65t-44 -84t-19 -99t9 -111q12 -57 38 -109.5t62.5 -97.5t82 -81.5t96.5 -63t107 -40.5t112 -14q46 0 91 7t85.5 23t74 41t57.5 63h131q-30 -63 -74.5 -108t-99 -73.5 t-117 -41.5t-128.5 -13q-76 0 -148 18t-139 51t-125.5 79.5t-105 104t-79.5 124.5t-49 141q-16 72 -10.5 137.5zM328 505q0 -27 5 -51q4 -22 15.5 -40.5t26.5 -32t34 -21.5t41 -8q24 0 43.5 11.5t34.5 30t25.5 43.5t16 51t6 53t-5.5 51q-4 18 -13 35t-22.5 31t-30.5 23 t-36 9q-28 0 -51 -11t-39 -29t-27 -42t-17 -50t-6 -53z" />
<glyph unicode="A" horiz-adv-x="964" d="M0 0l382 1000h192l390 -1000h-198l-101 280h-381q-14 -36 -26.5 -70.5t-24.5 -69t-24 -69.5q-13 -35 -25 -71h-184zM346 434h260l-132 367z" />
<glyph unicode="B" horiz-adv-x="964" d="M94 1000h404q45 0 90.5 -4t86.5 -13.5t76.5 -27t62 -45.5t41.5 -69t15 -95q0 -73 -26 -125.5t-81 -88.5q36 -16 64 -39t46.5 -53.5t28.5 -66.5t10 -76q0 -37 -9.5 -73t-28 -69t-45.5 -61.5t-63 -49t-80 -32.5t-96 -12h-494zM270 848l2 -260h234q50 0 86 8t59 24.5 t33.5 41t10.5 57.5q0 32 -6 54.5t-17.5 37t-28.5 22t-38.5 11t-47 4t-53.5 0.5h-234zM271 150h299q40 0 71 10t52 30t32 48.5t11 64.5q0 40 -17 65.5t-44 40.5t-61.5 21t-69.5 6h-272z" />
<glyph unicode="C" horiz-adv-x="1016" d="M46 496q0 74 14 141t42 126t69 106.5t95 81.5t121 52.5t147 18.5q83 0 154.5 -21.5t127 -64.5t92.5 -108q38 -64 52 -150h-181q-10 52 -31.5 88.5t-53.5 60t-73 34.5t-89 11q-54 0 -98 -14t-78 -39t-59.5 -59t-42 -75t-24.5 -86.5t-8 -92.5q0 -77 18 -145.5t56 -120 t97 -81.5t141 -30q60 0 106 19.5t78 55t50 84.5q18 50 22 108h176q-10 -100 -43 -177.5t-88.5 -130t-133 -79.5t-177.5 -27q-80 0 -146.5 18t-120 50.5t-93 79t-66 103.5t-39.5 123q-13 68 -13 140z" />
<glyph unicode="D" horiz-adv-x="991" d="M94 1000h355q120 0 212.5 -29.5t156.5 -89t97 -148.5t33 -209q0 -126 -29 -223.5t-90 -164t-155 -101.5t-224 -35h-354zM270 848l1 -698h189q16 0 37.5 1.5t46.5 7t51.5 16t52.5 28.5t48.5 44t40 62.5t27 84.5t9.5 110q0 82 -16.5 146t-53.5 108t-97 67t-144 23h-192z " />
<glyph unicode="E" horiz-adv-x="860" d="M94 1000h724l-1 -152h-547l2 -260h508v-152h-508l-1 -286h549l1 -150h-725z" />
<glyph unicode="F" horiz-adv-x="809" d="M94 1000h689l-1 -152h-512l2 -260h447l-1 -152h-446v-436h-176z" />
<glyph unicode="G" horiz-adv-x="1067" d="M45 482q0 72 13.5 140t41.5 128t69 110t96 86t123 56t150 20t157 -19t134 -61t97 -109q40 -67 50 -163h-174q-10 56 -34.5 94t-59 62t-78.5 35t-92 11q-56 0 -101 -15t-80.5 -41t-61 -62.5t-42 -79t-24.5 -89.5t-8 -95q0 -47 9.5 -92.5t27.5 -85.5t45 -73.5t62 -58 t78 -38t95 -13.5q66 0 118 21t90 57t59 84.5t24 104.5h-313l-2 151h478l2 -547h-126l-30 92q-31 -28 -67 -49t-74.5 -34.5t-79 -20t-79.5 -6.5q-77 0 -143.5 18t-121.5 52t-97 80t-71 101.5t-45 118.5q-15 64 -15 130z" />
<glyph unicode="H" horiz-adv-x="1016" d="M94 1000h177l1 -412h472l-2 412h176l2 -1000h-176l-2 436h-470v-436h-176z" />
<glyph unicode="I" horiz-adv-x="397" d="M109 1000h176l1 -1000h-176z" />
<glyph unicode="J" horiz-adv-x="733" d="M16 282v76h180l-2 -61q0 -38 6 -68.5t21 -53t41 -34.5t67 -12q38 0 62.5 10.5t39.5 30.5t21 47t6 61l1 722h177l-1 -734q0 -36 -6.5 -71.5t-20.5 -67t-38 -58.5t-58.5 -47t-81 -31t-106.5 -11q-75 0 -133 19.5t-97 58t-59 94.5q-19 56 -19 130z" />
<glyph unicode="K" horiz-adv-x="966" d="M94 1000h177v-447l449 447h231l-425 -408l434 -592h-212l-344 471q-34 -32 -66 -64.5t-67 -64.5l1 -342h-176z" />
<glyph unicode="L" horiz-adv-x="776" d="M94 1000h177v-850h498l1 -150h-674z" />
<glyph unicode="M" horiz-adv-x="1216" d="M94 1000h236l275 -783l276 783h237l2 -1000h-176l-2 721q-32 -93 -64 -183t-64 -179t-64.5 -178t-65.5 -181h-152l-260 723v-723h-176z" />
<glyph unicode="N" horiz-adv-x="1020" d="M94 1000h202l451 -746l-1 746h176l2 -1000h-203l-451 740l2 -740h-176z" />
<glyph unicode="O" horiz-adv-x="1069" d="M39 500q0 68 13.5 133.5t41.5 123.5t69 106.5t95 83.5t123 55t151 20q83 0 152 -20t124 -55t96 -83.5t68.5 -106.5t40.5 -123.5t13 -133.5t-13 -133.5t-40.5 -123t-69 -105.5t-96.5 -83t-123.5 -54t-151.5 -19q-82 0 -151 19t-123.5 54t-95.5 83t-68.5 105.5t-41 123 t-13.5 133.5zM215 500q0 -46 7.5 -91.5t24.5 -87t42 -76.5t60 -61t81 -40q46 -15 102 -15q58 0 103 14.5t81 40.5t61 61t41 76.5t24 87t8 91.5t-8 91.5t-24 87t-41.5 76.5t-61 61.5t-81.5 41t-102 14.5t-102 -14.5t-81 -41t-60 -61.5t-42 -76.5t-24.5 -87t-7.5 -91.5z" />
<glyph unicode="P" horiz-adv-x="913" d="M94 1000h449q82 0 143 -20.5t102 -59.5t61.5 -95.5t20.5 -130.5q0 -72 -21 -128t-61 -95t-102 -59q-59 -19 -136 -19h-8h-272l2 -393h-176zM270 848l2 -306h227h9q45 0 79 10q37 10 61 29t35.5 48t12.5 65q0 75 -49 114.5t-149 39.5h-228z" />
<glyph unicode="Q" horiz-adv-x="1069" d="M39 500q0 68 13.5 133.5t41.5 123.5t69 106.5t95 83.5t123 55t151 20q83 0 152 -20t124 -55t96 -83.5t68.5 -106.5t40.5 -123.5t13 -133.5q0 -54 -8 -105.5t-24.5 -99t-41 -90t-58.5 -78.5l136 -109l-94 -116l-166 133q-50 -26 -109 -39.5t-129 -13.5q-82 0 -151 19 t-123.5 54t-95.5 83t-68.5 105.5t-41 123t-13.5 133.5zM215 500q0 -46 7.5 -91.5t24.5 -87t42 -76.5t60 -61t81 -40q46 -15 102 -15q30 0 55 3.5t47 11.5l-91 75l97 115l128 -102q22 26 37 57t25 66t15 71t5 74q0 46 -8 91.5t-24 87t-41.5 76.5t-61 61.5t-81.5 41t-102 14.5 t-102 -14.5t-81 -41t-60 -61.5t-42 -76.5t-24.5 -87t-7.5 -91.5z" />
<glyph unicode="R" horiz-adv-x="964" d="M94 1000h482q77 0 137.5 -19t101.5 -53.5t63 -85t22 -115.5q0 -39 -7 -75.5t-22 -68t-39 -57.5q-24 -24 -56 -42q34 -22 53 -53t30 -66.5t16 -73t8 -72.5q4 -27 5.5 -54.5t8.5 -55t21 -55t42 -54.5h-200q-13 14 -21.5 30.5t-13 36t-6.5 41.5t-3 48q-2 26 -4 54t-7 55 t-14.5 52.5t-26 45t-41 32.5t-59.5 15h-293l1 -410h-176zM270 557h246q40 0 78 6.5t67 23.5t46 47t17 74q0 32 -9 58t-28.5 44t-49 28t-70.5 10h-297v-291z" />
<glyph unicode="S" horiz-adv-x="913" d="M44 352h168q0 -62 20 -104t55.5 -69t82.5 -38.5t100 -11.5q42 0 82.5 6.5t73 23.5t52.5 46t20 75q0 26 -10.5 46t-28 35.5t-42.5 27t-54 20.5t-61.5 16t-66.5 13q-44 9 -88.5 19.5t-85.5 24.5t-76 34t-61 48.5t-41 67t-15 89.5q0 52 15 94.5t41 75.5t61.5 58t78 41 t89.5 24t95 8q80 0 147.5 -19t117 -59t78.5 -104t34 -154h-168q-6 53 -23 88.5t-44.5 57.5t-64.5 31t-84 9q-37 0 -72 -7t-63 -23.5t-45 -43.5t-17 -67q0 -33 19.5 -55t52.5 -37.5t76.5 -26t91.5 -20.5l92 -20t89 -25t81 -36.5t66 -52.5t44 -73.5t16 -100.5q0 -56 -17 -100 t-46 -77.5t-68 -57t-84 -38.5t-94 -22t-97 -7q-59 0 -113 8.5t-100.5 27t-85.5 48t-66 71t-42 95.5q-15 52 -15 120z" />
<glyph unicode="T" horiz-adv-x="813" d="M10 848v152h789l-1 -152h-309l3 -848h-176l-3 848h-303z" />
<glyph unicode="U" horiz-adv-x="1028" d="M94 1000h177l1 -634q0 -120 62 -178q64 -59 188 -59q116 0 174 59q58 58 60 178l-2 634h176l2 -634q0 -97 -28 -169.5t-80 -120.5t-129 -72t-175 -24q-102 0 -180.5 22.5t-133 70t-82.5 120.5t-28 173z" />
<glyph unicode="V" horiz-adv-x="893" d="M-1 1000h192l256 -783l258 783h187l-352 -1000h-194z" />
<glyph unicode="W" horiz-adv-x="1294" d="M-1 1000h181l178 -730q47 184 95.5 365t96.5 365h190l194 -734l180 734h179l-267 -1000h-184l-203 750l-201 -750h-180z" />
<glyph unicode="X" horiz-adv-x="901" d="M0 0l340 516l-323 484h213l220 -351l228 351h201l-327 -486l349 -514h-215l-238 366l-245 -366h-203z" />
<glyph unicode="Y" horiz-adv-x="948" d="M-1 1000h213l266 -430l262 430h206l-385 -596l2 -404h-178l-1 402z" />
<glyph unicode="Z" horiz-adv-x="927" d="M48 137l584 711h-536v152h762l2 -140l-580 -710h598v-150h-829z" />
<glyph unicode="[" horiz-adv-x="385" d="M86 -272l1 1296h287v-133h-128v-1031h128l-1 -132h-287z" />
<glyph unicode="\" horiz-adv-x="528" d="M-19 1024h155l408 -1044h-151z" />
<glyph unicode="]" horiz-adv-x="385" d="M9 891l1 133h286l-1 -1296h-285l1 132h125v1031h-127z" />
<glyph unicode="^" horiz-adv-x="854" d="M52 377l308 610h134l306 -610h-129l-245 487l-236 -487h-138z" />
<glyph unicode="_" horiz-adv-x="723" d="M12 -94h700v-117h-700v117z" />
<glyph unicode="`" horiz-adv-x="397" d="M40 1024h190l124 -207h-128z" />
<glyph unicode="a" horiz-adv-x="766" d="M38 196q0 47 12 80.5t33 57t50.5 39t64 26.5t73.5 19t79 18q28 7 57 14t53 16t39 21t15 29q0 29 -11.5 45.5t-30 24.5t-42.5 10t-48 2q-32 0 -57.5 -4.5t-45 -18t-30.5 -37.5t-12 -63h-168q2 77 29 128.5t70.5 82.5t101.5 44.5t122 13.5q34 0 69.5 -3.5t68 -12 t60.5 -23.5t48.5 -38.5t31.5 -56.5q12 -34 13 -78v-354q0 -23 1 -34q0 -11 10 -11q2 0 6 0.5t10 1.5t16 5t24 10v-134q-24 -17 -48 -24q-24 -8 -54 -8q-22 0 -41 4t-34.5 14t-27 25t-16.5 37q-22 -19 -49 -34.5t-56.5 -25.5t-61.5 -15t-64 -5q-53 0 -100.5 11.5t-82.5 37 t-56 65.5t-21 98zM210 205q0 -21 9 -35.5t25 -23.5t37 -13t44 -4q52 0 87.5 12.5t58.5 32.5t33 43t10 43l1 92q-30 -12 -65 -22q-34 -8 -64 -16q-32 -8 -64 -17t-57 -20.5t-40 -28.5t-15 -43z" />
<glyph unicode="b" horiz-adv-x="844" d="M76 1000h168v-336q20 23 45 39.5t52 27.5t56 17t57 6q59 0 107.5 -15t87 -41t67 -62t47.5 -79t29 -91t10 -98q0 -80 -21 -150t-63.5 -122t-107 -82t-152.5 -30q-28 0 -56 4t-55 14.5t-53 28t-50 43.5l2 -74h-168zM239 368q0 -46 10.5 -88.5t34 -75.5t62 -53t93.5 -20 q53 0 89 20.5t57.5 55t30 78.5t8.5 90q0 43 -10.5 84.5t-34 74t-60.5 52.5t-89 20q-53 0 -89.5 -21t-59 -55t-32.5 -76t-10 -86z" />
<glyph unicode="c" horiz-adv-x="766" d="M37 354q0 82 22.5 153t66.5 123.5t112 83t160 30.5q65 0 122.5 -16t101 -49t72 -85t36.5 -125h-168q-7 37 -21.5 62t-34.5 40t-45.5 21t-55.5 6q-57 0 -95 -20t-62 -54t-33.5 -78t-9.5 -92q0 -43 11 -83.5t34 -72t58.5 -50.5t85.5 -19q77 0 117 39q41 38 53 118h172 q-14 -74 -41 -130t-68.5 -94.5t-99 -58t-133.5 -19.5q-89 0 -155.5 27.5t-111.5 77t-67.5 117.5t-22.5 148z" />
<glyph unicode="d" horiz-adv-x="844" d="M40 368q0 50 9 98t28 91t48 79t68 62t88 41t107 15q28 0 57 -5.5t56 -16t51 -27.5t44 -41v336h168l2 -1000h-168l-2 74q-24 -26 -48.5 -43.5t-51 -28t-54.5 -14.5t-58 -4q-88 0 -152 30t-107 82t-64 122t-21 150zM215 375q0 -46 9.5 -90t31.5 -78.5t57.5 -55t88.5 -20.5 q56 0 94 20t62 53t35 75.5t11 88.5q0 43 -11 85.5t-34 76.5t-60 55t-89 21t-89 -20t-61 -52.5t-34.5 -74t-10.5 -84.5z" />
<glyph unicode="e" horiz-adv-x="766" d="M38 366q0 86 26 155.5t73 119t113 76.5t146 27q62 0 113 -17.5t91 -48t68 -71.5t46 -90t25 -102q5 -41 5 -84v-24h-535q2 -37 15 -69t36.5 -56.5t59.5 -38.5q34 -14 82 -14q30 0 56.5 6.5t48 20.5t37.5 38q14 24 24 58h164q-14 -68 -43 -119t-72 -84t-98 -49t-120 -16 q-92 0 -160.5 28t-113 79t-65.5 121q-22 70 -22 154zM210 452h357q-6 29 -21.5 55.5t-38.5 46.5t-53 32t-64 12q-36 0 -66 -11.5t-53 -31t-39 -46.5t-22 -57z" />
<glyph unicode="f" horiz-adv-x="469" d="M23 727h111l1 103v6q0 46 14 82q15 37 43 62.5t70 38.5t96 13q20 0 44 -4.5t46 -13.5v-152q-23 12 -44.5 16t-36.5 4q-32 0 -49 -13q-16 -13 -16 -45v-97h131l1 -155h-132l1 -572h-168l-1 572h-110z" />
<glyph unicode="g" horiz-adv-x="819" d="M38 360q0 42 7 87t24 87.5t44 80.5t66 66.5t91 45.5t120 17q57 0 105 -18q47 -18 85 -56v57h160v-680q0 -90 -21 -156.5t-65 -111t-112 -66.5t-161 -22q-35 0 -71.5 6t-71 19t-65.5 33t-54.5 47.5t-38 63.5t-16.5 80h166q2 -29 18 -49.5t40 -34.5t52 -20q26 -6 52 -6 q52 0 88 15.5t58 44.5t32 70.5t10 92.5l2 15q-42 -37 -95 -56.5t-107 -19.5q-86 0 -150 30t-107 80t-64 117t-21 141zM210 370q0 -42 8.5 -83.5t29 -75t54.5 -55t84 -21.5q53 0 89 21.5t57.5 55.5t31.5 77t10 86q0 40 -9 80.5t-30 72t-55 51t-83 19.5q-51 0 -86 -18.5 t-57.5 -50t-33 -72.5t-10.5 -87z" />
<glyph unicode="h" horiz-adv-x="794" d="M76 1000h168l1 -332q21 18 46 32t51.5 24t53.5 16q28 6 52 6q79 0 130.5 -21t82.5 -57.5t43 -86t12 -108.5l1 -473h-168l-1 484q-1 54 -30.5 84t-87.5 30q-46 0 -81 -15t-58 -41t-35 -60t-12 -72l2 -410h-168z" />
<glyph unicode="i" horiz-adv-x="352" d="M90 815v185h168v-185h-168zM91 727h167l2 -727h-168z" />
<glyph unicode="j" horiz-adv-x="352" d="M-22 -137q14 -2 24 -2.5t18 -1.5t14 -1h14q12 0 20.5 4t13.5 13t6.5 23t1.5 34l1 795h167l2 -813q0 -54 -15 -93.5t-40.5 -64.5t-62 -37t-80.5 -12q-20 0 -42 1.5t-41 5.5zM90 815v185h168v-185h-168z" />
<glyph unicode="k" horiz-adv-x="766" d="M76 1000h166l1 -535l276 262h223l-294 -271l306 -456h-203l-228 340l-81 -72l2 -268h-166z" />
<glyph unicode="l" horiz-adv-x="352" d="M90 1000h168l2 -1000h-168z" />
<glyph unicode="m" horiz-adv-x="1204" d="M76 727h162l2 -71q40 43 90 64.5t114 21.5q30 0 60 -6t57 -18t50 -29.5t39 -41.5q40 48 93.5 71.5t118.5 23.5q60 0 108.5 -13t83 -40t52.5 -69q18 -43 18 -102l2 -518h-168l-1 479q0 27 -5.5 49t-18.5 37t-34.5 23t-54.5 8q-38 0 -67.5 -10.5t-50 -30t-30.5 -47.5 q-10 -26 -10 -58v-6v-444h-168l-1 467q0 28 -4.5 51.5t-16.5 40.5t-33 27t-53 10t-56 -8t-42.5 -21t-31 -29t-20.5 -33t-11 -33t-3 -28v-444h-168z" />
<glyph unicode="n" horiz-adv-x="794" d="M76 727h162v-75q36 42 87 66t121 24q79 0 131.5 -21t82.5 -57q32 -36 44 -86q12 -46 11 -100v-9l2 -469h-166l-2 482q0 54 -31 84t-90 30q-46 0 -80.5 -15t-57.5 -41q-22 -26 -34 -60q-11 -31 -11 -66v-6l1 -408h-168z" />
<glyph unicode="o" horiz-adv-x="817" d="M37 362q0 80 23.5 150t70.5 121.5t116 81t162 29.5q92 0 160.5 -29.5t115.5 -81t70 -121.5t23 -150q0 -54 -10 -102t-31 -90t-52 -76.5t-72 -59t-92 -37.5t-112 -13q-92 0 -161.5 29t-116.5 80t-70.5 120t-23.5 149zM209 362q0 -58 15.5 -101t42.5 -72.5t63 -44.5t78 -15 q40 0 76 15t62.5 44.5t41.5 73.5q16 42 16 100q0 56 -15 100t-42 74t-62.5 46t-75.5 16q-42 0 -78 -16t-63 -46t-43 -74t-16 -100z" />
<glyph unicode="p" horiz-adv-x="844" d="M76 -272v999h168v-73q24 26 50 43t53.5 27.5t56 15t56.5 4.5q88 0 152 -30.5t106.5 -83t63 -122.5t20.5 -150q0 -50 -9.5 -97.5t-28 -90t-47.5 -78.5t-67 -62.5t-86.5 -41t-107.5 -14.5q-28 0 -57 5t-57 16t-53 28t-45 41v-336h-168zM239 358q0 -43 10 -85.5t32.5 -76 t59.5 -54.5t89 -21t89.5 20t61 52.5t34.5 74t11 84.5q0 46 -9.5 90t-31.5 78t-58 55t-89 21q-55 0 -93.5 -20t-62 -53t-34.5 -76q-9 -39 -9 -81v-8z" />
<glyph unicode="q" horiz-adv-x="844" d="M40 358q0 80 21 150t63 122.5t106 83t152 30.5q28 0 56.5 -4.5t56 -15t52.5 -27.5t49 -43v73h168v-999h-168l1 336q-20 -23 -44.5 -40.5t-52 -28.5t-56.5 -16q-30 -5 -58 -5q-59 0 -107.5 14.5t-86.5 41t-67 62.5t-48 78.5t-28 90t-9 97.5zM216 352q0 -43 11 -84.5 t34 -74t60 -52.5t89 -20q53 0 90 21t60 54.5t33.5 76.5t10.5 85q0 46 -11.5 89t-35 76t-61.5 53t-94 20q-53 0 -88.5 -21t-57.5 -55t-31 -78t-9 -90z" />
<glyph unicode="r" horiz-adv-x="493" d="M76 727h162l2 -90q21 27 43.5 47t51.5 33t64 19t82 6v-164q-72 0 -118 -17.5t-72.5 -50t-36.5 -79.5t-10 -107l2 -324h-168z" />
<glyph unicode="s" horiz-adv-x="715" d="M26 260h168q3 -39 18 -64.5t38 -41t52.5 -21.5t61.5 -6q24 0 49.5 3.5t46.5 12.5t34.5 24t14.5 40q0 22 -15 37t-39.5 25.5t-56.5 18.5t-65 15q-32 6 -66.5 15t-66.5 21.5t-60.5 28.5t-50 39t-33.5 52t-12 67t12 69.5t32.5 55.5t49 41.5t61 28.5t68 17t70.5 6 q63 0 118.5 -13t98 -43t69.5 -80t32 -124h-168q-2 33 -15.5 55t-34 35.5t-45 19.5t-49.5 6q-22 0 -44 -3t-40.5 -11t-29.5 -20q-11 -14 -11 -32t13 -30t35 -21.5t51 -17t62 -15.5l52 -12q52 -12 97.5 -28t80 -40t55 -60t20.5 -87q0 -47 -14 -83t-37 -63t-54 -44.5t-67 -28.5 t-75 -15.5t-79 -4.5q-67 0 -125.5 14t-102.5 47t-72 86t-32 129z" />
<glyph unicode="t" horiz-adv-x="459" d="M9 727h111l-1 215h166l1 -215h132l1 -155h-133l-1 -384q0 -13 3 -20.5t10.5 -11.5t19.5 -5t31 -1h78l1 -150h-112q-52 0 -89.5 7.5t-61 27.5t-35 55t-11.5 90l1 392h-110z" />
<glyph unicode="u" horiz-adv-x="798" d="M76 258v469h172l1 -483q0 -52 29.5 -81.5t85.5 -29.5q48 0 83 14t58 39t34 59.5t11 76.5v405h170l-1 -729h-164l-1 72q-40 -40 -90 -63t-114 -23q-79 0 -132 20t-84.5 56t-44.5 87t-13 111z" />
<glyph unicode="v" horiz-adv-x="745" d="M17 727h187l174 -518l168 518h180l-265 -727h-175z" />
<glyph unicode="w" horiz-adv-x="1097" d="M17 727h189l134 -489l122 489h178l126 -489l134 489h178l-230 -727h-174l-128 471l-116 -471h-180z" />
<glyph unicode="x" horiz-adv-x="770" d="M10 0l268 381l-248 346h206l146 -213l147 213h207l-250 -336l274 -391h-207l-171 256l-171 -256h-201z" />
<glyph unicode="y" horiz-adv-x="751" d="M13 727h185l186 -518q44 132 88.5 259.5t87.5 258.5h176l-315 -829q-22 -54 -44.5 -93t-49.5 -64t-60 -36.5t-75 -11.5q-22 0 -48 1.5t-54 12.5l2 160q28 -11 49 -15t37 -4q52 0 76 48l43 112z" />
<glyph unicode="z" horiz-adv-x="755" d="M60 119l402 459h-374v149h605l-1 -113l-406 -466h402v-148h-626z" />
<glyph unicode="{" horiz-adv-x="483" d="M51 424q24 0 45 12.5t36.5 34t24.5 50.5t9 63v254q0 44 14 79t38.5 58.5t56.5 36t68 12.5h103l-1 -123h-57q-18 0 -31 -4.5t-21 -15.5t-11 -27t-3 -39v-252q0 -40 -11 -71.5t-28 -55.5t-35 -40t-32 -24q14 -6 32 -17t35 -33t28 -56t12 -82l-2 -252q2 -42 16 -62t51 -20 h57l-1 -122h-102q-37 0 -68.5 11t-55.5 34t-38 58t-14 81l2 252q0 36 -9.5 66t-25 50.5t-36.5 32t-45 11.5z" />
<glyph unicode="|" horiz-adv-x="327" d="M93 -295l1 1395h139l-1 -1395h-139z" />
<glyph unicode="}" horiz-adv-x="483" d="M36 -150h57q37 0 51 20t14 62l1 252q0 48 11.5 82t27.5 56t34 34q18 10 32 16q-14 8 -32 24t-34.5 40t-28 55.5t-11.5 71.5v252q0 23 -3 39t-11 27t-20 15q-14 5 -32 5h-56v123h102q36 0 68 -12.5t56 -36t38 -58.5t13 -79l1 -254q0 -33 9 -62.5t24 -51t36 -34t45 -12.5 v-100q-24 0 -44.5 -11.5t-36 -32t-24 -50.5t-8.5 -66l-1 -252q0 -46 -13.5 -81t-37.5 -58t-56.5 -34t-68.5 -11h-101z" />
<glyph unicode="~" horiz-adv-x="854" d="M79 322q12 27 30.5 52t43 45t56 32t71.5 12q27 0 54.5 -7.5t54 -18.5t52 -24t48.5 -24t45 -19t40 -8q16 0 33.5 11t34 28t31.5 37t27 39l74 -102q-16 -26 -35 -50.5t-43 -43.5t-54.5 -31t-69.5 -12q-27 0 -53.5 7t-53 18t-52 24.5t-50 24.5t-48 18.5t-45.5 7.5 q-16 0 -31 -10.5t-30 -27.5t-30 -38.5t-29 -42.5z" />
<glyph d="M-910 966l66 134h518v-134h-584z" />
<glyph unicode="&#xf701;" d="M-910 966l66 134h518v-134h-584z" />
<glyph d="M-910 966l66 134h358v118h160v-252h-584z" />
<glyph unicode="&#xf702;" d="M-910 966l66 134h358v118h160v-252h-584z" />
<glyph d="M-910 966l68 134h236l-1 14q0 30 11.5 57t31.5 47t46 32t58 12q30 0 57 -12t47.5 -32t32 -47t11.5 -57q0 -31 -11 -57.5t-31 -46.5t-47 -32t-58 -12h-451zM-513 1114q0 -10 4.5 -20t12 -16.5t17 -10.5t20.5 -4q10 0 20 4t17 10.5t11.5 16.5t4.5 20q0 24 -16 39t-37 15 q-10 0 -20.5 -4t-17.5 -11.5t-11.5 -17t-4.5 -21.5z" />
<glyph unicode="&#xf703;" d="M-910 966l68 134h236l-1 14q0 30 11.5 57t31.5 47t46 32t58 12q30 0 57 -12t47.5 -32t32 -47t11.5 -57q0 -31 -11 -57.5t-31 -46.5t-47 -32t-58 -12h-451zM-513 1114q0 -10 4.5 -20t12 -16.5t17 -10.5t20.5 -4q10 0 20 4t17 10.5t11.5 16.5t4.5 20q0 24 -16 39t-37 15 q-10 0 -20.5 -4t-17.5 -11.5t-11.5 -17t-4.5 -21.5z" />
<glyph d="M-910 966l68 134h138l-2 118h152l1 -118h76l-1 118h152v-252h-584z" />
<glyph unicode="&#xf704;" d="M-910 966l68 134h138l-2 118h152l1 -118h76l-1 118h152v-252h-584z" />
<glyph d="M-532 1222h164l1 -258h-163z" />
<glyph unicode="&#xf705;" d="M-532 1222h164l1 -258h-163z" />
<glyph d="M-768 1094v122h202v-122q40 0 69 10t47 27t27 39t9 46h148q0 -48 -18 -92t-56.5 -78t-98 -54.5t-142.5 -20.5h-119l1 123h-69z" />
<glyph unicode="&#xf706;" d="M-768 1094v122h202v-122q40 0 69 10t47 27t27 39t9 46h148q0 -48 -18 -92t-56.5 -78t-98 -54.5t-142.5 -20.5h-119l1 123h-69z" />
<glyph d="M-848 973q-3 57 7.5 99t28.5 70t43 42t51 14q32 0 56 -14t36 -39q7 10 17.5 19.5t23.5 17t27.5 12t28.5 4.5q18 0 34.5 -6.5t31 -19t26 -30.5t17.5 -42q8 9 13 21.5t8 27.5t4 31q1 14 1 30h127q0 -43 -11.5 -82.5t-31.5 -71.5t-47 -54t-61 -29h-98q0 17 -1 35t-5 33 t-10 25q-6 9 -14 9t-13.5 -9.5t-9.5 -24t-6 -33t-2 -35.5h-95q0 17 -1 35t-4 33t-8 24.5t-14 9.5q-10 0 -16 -9.5t-9.5 -24.5t-4.5 -33t-2 -35h-117z" />
<glyph unicode="&#xf707;" d="M-848 973q-3 57 7.5 99t28.5 70t43 42t51 14q32 0 56 -14t36 -39q7 10 17.5 19.5t23.5 17t27.5 12t28.5 4.5q18 0 34.5 -6.5t31 -19t26 -30.5t17.5 -42q8 9 13 21.5t8 27.5t4 31q1 14 1 30h127q0 -43 -11.5 -82.5t-31.5 -71.5t-47 -54t-61 -29h-98q0 17 -1 35t-5 33 t-10 25q-6 9 -14 9t-13.5 -9.5t-9.5 -24t-6 -33t-2 -35.5h-95q0 17 -1 35t-4 33t-8 24.5t-14 9.5q-10 0 -16 -9.5t-9.5 -24.5t-4.5 -33t-2 -35h-117z" />
<glyph d="M-702 1192h117l1 102h154l-1 -102h117v-121h-116v-105h-154v105h-116z" />
<glyph unicode="&#xf708;" d="M-702 1192h117l1 102h154l-1 -102h117v-121h-116v-105h-154v105h-116z" />
<glyph d="M-654 968q0 58 21 104t61 78t97 49t129 17v-126q-76 0 -116 -29t-40 -93h-152z" />
<glyph unicode="&#xf709;" d="M-654 968q0 58 21 104t61 78t97 49t129 17v-126q-76 0 -116 -29t-40 -93h-152z" />
<glyph d="M-245 1222h163l2 -258h-162z" />
<glyph unicode="&#xf70a;" d="M-245 1222h163l2 -258h-162z" />
<glyph d="M-556 1096v124h211v-124q40 0 71.5 10t52.5 27t31 39q11 22 11 48h149q0 -48 -20 -93t-61.5 -80t-104 -55.5t-146.5 -20.5h-122v125h-72z" />
<glyph unicode="&#xf70b;" d="M-556 1096v124h211v-124q40 0 71.5 10t52.5 27t31 39q11 22 11 48h149q0 -48 -20 -93t-61.5 -80t-104 -55.5t-146.5 -20.5h-122v125h-72z" />
<glyph d="M-702 971q-4 60 7.5 103.5t32 72.5t48.5 43t60 14q34 0 60 -14t44 -39q9 10 21 19.5t26 17t29.5 12t31.5 4.5q20 0 39 -6.5t35 -19t28.5 -31.5t19.5 -43q8 9 16 22t14 28.5t10 31.5t3 32h145q0 -42 -15 -83t-40 -75t-58 -58t-69 -31h-111q0 15 -1.5 33t-5.5 34t-11 26.5 t-16 10.5q-10 0 -16.5 -10.5t-10.5 -25.5t-6 -33.5t-2 -34.5h-109q0 16 -1.5 34.5t-5 33.5t-10 25.5t-15.5 10.5q-10 0 -17 -10.5t-11 -26.5t-5.5 -34t-1.5 -33h-132z" />
<glyph unicode="&#xf70c;" d="M-702 971q-4 60 7.5 103.5t32 72.5t48.5 43t60 14q34 0 60 -14t44 -39q9 10 21 19.5t26 17t29.5 12t31.5 4.5q20 0 39 -6.5t35 -19t28.5 -31.5t19.5 -43q8 9 16 22t14 28.5t10 31.5t3 32h145q0 -42 -15 -83t-40 -75t-58 -58t-69 -31h-111q0 15 -1.5 33t-5.5 34t-11 26.5 t-16 10.5q-10 0 -16.5 -10.5t-10.5 -25.5t-6 -33.5t-2 -34.5h-109q0 16 -1.5 34.5t-5 33.5t-10 25.5t-15.5 10.5q-10 0 -17 -10.5t-11 -26.5t-5.5 -34t-1.5 -33h-132z" />
<glyph d="M-357 1073v125h119v104h156v-104h120v-125h-120v-107h-154v107h-121z" />
<glyph unicode="&#xf70d;" d="M-357 1073v125h119v104h156v-104h120v-125h-120v-107h-154v107h-121z" />
<glyph d="M-347 968q0 58 21 104t60.5 78t95.5 49t128 17l1 -126q-76 0 -116 -29q-41 -29 -41 -93h-149z" />
<glyph unicode="&#xf70e;" d="M-347 968q0 58 21 104t60.5 78t95.5 49t128 17l1 -126q-76 0 -116 -29q-41 -29 -41 -93h-149z" />
<glyph d="M-614 968v202h155l-1 -72h540v-130h-694z" />
<glyph unicode="&#xf710;" d="M-614 968v202h155l-1 -72h540v-130h-694z" />
<glyph d="M-643 1112q0 33 12.5 62t33.5 50.5t50 34.5t63 13q32 0 61 -13t51 -34.5t35 -50.5t13 -62t-13 -62t-35 -50.5t-51 -34.5t-61 -13q-33 0 -62 13t-50.5 34.5t-34 50.5t-12.5 62zM-540 1112q0 -12 4 -22t12 -18t18 -13t22 -5t22.5 5t18.5 13t12.5 18t4.5 22t-5 22t-13 18 t-18 13t-22 5t-22 -5t-18 -13t-12 -18t-4 -22z" />
<glyph unicode="&#xf711;" d="M-643 1112q0 33 12.5 62t33.5 50.5t50 34.5t63 13q32 0 61 -13t51 -34.5t35 -50.5t13 -62t-13 -62t-35 -50.5t-51 -34.5t-61 -13q-33 0 -62 13t-50.5 34.5t-34 50.5t-12.5 62zM-540 1112q0 -12 4 -22t12 -18t18 -13t22 -5t22.5 5t18.5 13t12.5 18t4.5 22t-5 22t-13 18 t-18 13t-22 5t-22 -5t-18 -13t-12 -18t-4 -22z" />
<glyph d="M-856 1159q0 51 17 87t46 60t67.5 35t80.5 11h381v-119h-370q-28 0 -45 -7.5t-25 -18.5t-10 -24t-2 -24q0 -6 1 -15.5t6 -18.5t14 -15t25 -6q24 0 36 20t12 56h108q-2 -36 10 -56t34 -20q14 0 22.5 5.5t13 15.5t5 23.5t-0.5 31.5h118q5 -54 -3.5 -92t-28 -62t-47.5 -35.5 t-60 -11.5q-21 0 -39 5.5t-32.5 15.5t-25 22t-16.5 26q-8 -14 -21 -26t-30 -22t-36.5 -15.5t-39.5 -5.5q-48 0 -79.5 17t-50.5 43.5t-27 58t-8 61.5z" />
<glyph unicode="&#xf712;" d="M-856 1159q0 51 17 87t46 60t67.5 35t80.5 11h381v-119h-370q-28 0 -45 -7.5t-25 -18.5t-10 -24t-2 -24q0 -6 1 -15.5t6 -18.5t14 -15t25 -6q24 0 36 20t12 56h108q-2 -36 10 -56t34 -20q14 0 22.5 5.5t13 15.5t5 23.5t-0.5 31.5h118q5 -54 -3.5 -92t-28 -62t-47.5 -35.5 t-60 -11.5q-21 0 -39 5.5t-32.5 15.5t-25 22t-16.5 26q-8 -14 -21 -26t-30 -22t-36.5 -15.5t-39.5 -5.5q-48 0 -79.5 17t-50.5 43.5t-27 58t-8 61.5z" />
<glyph d="M-482 1313v245h154l2 -245h-156z" />
<glyph unicode="&#xf713;" d="M-482 1313v245h154l2 -245h-156z" />
<glyph d="M-710 1560h211l2 -124q40 0 72 10t53.5 27t32.5 39t10 48h145q0 -48 -19 -93t-60 -80t-103 -56q-64 -21 -148 -21h-116v126h-78z" />
<glyph unicode="&#xf714;" d="M-710 1560h211l2 -124q40 0 72 10t53.5 27t32.5 39t10 48h145q0 -48 -19 -93t-60 -80t-103 -56q-64 -21 -148 -21h-116v126h-78z" />
<glyph d="M-728 1310q-4 56 5.5 97t29 68t45.5 40t54 13q30 0 54 -14q22 -14 40 -38q16 24 42.5 38t55.5 14q38 0 68 -22t44 -68q8 10 15 23t12 28.5t8 33t3 33.5h133q0 -25 -6 -51.5t-17 -52.5t-26.5 -49.5t-34 -42.5t-39.5 -32q-20 -14 -42 -18h-106q0 10 -2 25.5t-5 30.5t-8 26 t-13 11t-13.5 -9.5t-8 -23.5t-3.5 -30t-1 -30h-108q0 13 -1.5 29.5t-4 30.5t-7.5 23.5t-13 9.5t-13.5 -11t-8 -26t-3.5 -30.5t-1 -25.5h-124z" />
<glyph unicode="&#xf715;" d="M-728 1310q-4 56 5.5 97t29 68t45.5 40t54 13q30 0 54 -14q22 -14 40 -38q16 24 42.5 38t55.5 14q38 0 68 -22t44 -68q8 10 15 23t12 28.5t8 33t3 33.5h133q0 -25 -6 -51.5t-17 -52.5t-26.5 -49.5t-34 -42.5t-39.5 -32q-20 -14 -42 -18h-106q0 10 -2 25.5t-5 30.5t-8 26 t-13 11t-13.5 -9.5t-8 -23.5t-3.5 -30t-1 -30h-108q0 13 -1.5 29.5t-4 30.5t-7.5 23.5t-13 9.5t-13.5 -11t-8 -26t-3.5 -30.5t-1 -25.5h-124z" />
<glyph d="M-601 1415l1 121h119l1 102h149l1 -102h117l-1 -121h-116l1 -105h-152l-1 105h-119z" />
<glyph unicode="&#xf716;" d="M-601 1415l1 121h119l1 102h149l1 -102h117l-1 -121h-116l1 -105h-152l-1 105h-119z" />
<glyph d="M-480 1214q-1 58 19.5 103.5t60.5 77.5t96 49.5t127 17.5l1 -126q-76 0 -115 -29t-38 -93h-151z" />
<glyph unicode="&#xf717;" d="M-480 1214q-1 58 19.5 103.5t60.5 77.5t96 49.5t127 17.5l1 -126q-76 0 -115 -29t-38 -93h-151z" />
<glyph unicode="&#xa2;" horiz-adv-x="772" d="M43 366q0 74 17.5 140.5t55.5 118t95 84.5t135 43l-2 132h110l2 -130q55 -6 103 -25t84.5 -52t60 -82t29.5 -113h-168q-4 29 -14.5 50.5t-24.5 36.5t-32 24t-40 13l2 -458q48 12 75 50t38 101h172q-26 -134 -94.5 -209.5t-190.5 -89.5v-150h-111l1 150q-76 8 -133 38 t-95 78t-57 112t-18 138zM211 366q-1 -37 7 -71.5t24.5 -64t42 -51t61.5 -31.5l-1 454q-38 -10 -64 -33.5t-41.5 -55t-22 -69.5t-6.5 -78z" />
<glyph unicode="&#xa3;" horiz-adv-x="772" d="M29 102q33 19 63 45.5t52 56.5t36 64q12 34 12 68q0 12 -1 25t-5 26t-9.5 26t-11.5 23h-125v106h64q-20 38 -34 84t-14 103q0 46 13 85.5t35.5 71.5t54 57.5t69.5 43t81 26.5t88 9q82 0 147.5 -24t110.5 -72.5t68 -121t23 -169.5h-164q-2 58 -13.5 103.5t-33.5 77.5 t-54.5 48t-76.5 16q-38 0 -70 -12t-55.5 -33t-36.5 -50t-13 -62q0 -26 4.5 -49.5t13 -46.5t19 -44t22.5 -41h232v-106h-177q6 -17 9 -37q4 -21 5 -39q0 -30 -6.5 -58t-17.5 -53t-26 -47t-32 -42q13 4 24.5 5t25.5 1q44 0 77 -8q32 -6 58 -14q23 -6 39.5 -11t28.5 -7t22 -3.5 t20 -1.5q14 0 30 5t32.5 13.5t32 19.5t29.5 23l90 -124q-26 -23 -55.5 -38.5t-59.5 -24.5t-59.5 -12t-58.5 -3q-21 0 -39.5 2t-36 5.5t-34.5 8t-35 10.5q-38 12 -70.5 19.5t-66.5 7.5q-36 0 -71 -15.5t-73 -37.5z" />
<glyph unicode="&#xa5;" horiz-adv-x="825" d="M-3 1000h206l217 -441l205 441h201l-242 -462h116l1 -126h-185l-16 -31v-49h201l1 -129h-200v-203h-174l-1 203h-197v129h196v49l-16 31h-180l-1 126h111z" />
<glyph unicode="&#xa9;" horiz-adv-x="1114" d="M32 494q0 72 19 139t53 124t82 104t106 80.5t125 52t137 18.5q71 0 137.5 -18.5t124.5 -52t105 -80.5t81.5 -104t53 -124t18.5 -139q0 -74 -18.5 -142t-53 -125.5t-82 -104t-105 -79.5t-124 -50t-137.5 -17q-72 0 -138 17t-124 50t-106 79.5t-82 104t-53 125t-19 142.5z M153 494q0 -90 29.5 -166.5t82.5 -132.5t127 -87.5t161 -31.5q56 0 107.5 14t96.5 41t82 64t63 83.5t40 101t14 114.5t-14 114t-40 100t-62 83t-81 63t-97 40t-108 14q-88 0 -161 -31t-126.5 -86.5t-83.5 -131t-30 -165.5zM262 492q0 69 21 126.5t60 99.5t94.5 65.5 t125.5 23.5q52 0 96.5 -13.5t79.5 -41.5t59 -71t35 -101h-111q-6 27 -20 50.5t-34 40.5t-46 27t-56 10q-44 0 -79 -16t-59 -45t-36 -68t-12 -85q0 -42 13 -82t37.5 -70t60 -49t79.5 -19q28 0 53.5 10t45.5 27.5t33.5 42t19.5 56.5h112q-13 -57 -38 -101.5t-59.5 -74.5 t-76.5 -46t-91 -16q-70 0 -127 24t-97 67t-61 101q-22 60 -22 128z" />
<glyph unicode="&#xab;" horiz-adv-x="643" d="M64 312v149l219 172l1 -141l-134 -107l134 -105v-143zM336 461l219 172l2 -141l-137 -107l136 -105v-143l-219 175z" />
<glyph unicode="&#xad;" horiz-adv-x="663" d="M61 442h537l2 -133h-537z" />
<glyph unicode="&#xae;" horiz-adv-x="1108" d="M32 494q0 72 19 139t53 124t82 104t106 80.5t125 52t137 18.5q71 0 137.5 -18.5t124.5 -52t105 -80.5t81.5 -104t53 -124t18.5 -139q0 -74 -18.5 -142t-53 -125.5t-82 -104t-105 -79.5t-124 -50t-137.5 -17q-72 0 -138 17t-124 50t-106 79.5t-82 104t-53 125t-19 142.5z M153 494q0 -90 29.5 -166.5t82.5 -132.5t127 -87.5t161 -31.5q56 0 107.5 14t96.5 41t82 64t63 83.5t40 101t14 114.5t-14 114t-40 100t-62 83t-81 63t-97 40t-108 14q-88 0 -161 -31t-126.5 -86.5t-83.5 -131t-30 -165.5zM344 217v551h226q104 0 154 -40q52 -41 52 -130 q0 -30 -9.5 -56t-26 -46t-38.5 -35t-50 -23l139 -221h-133l-132 209h-60v-209h-122zM466 526h67q23 0 45 2t39.5 10t28 22t10.5 40q0 20 -9 33t-23.5 20t-32 10t-34.5 3h-90z" />
<glyph unicode="&#xbb;" horiz-adv-x="643" d="M84 633l220 -172v-149l-219 -175l1 143l133 105l-133 107zM356 633l220 -172v-149l-218 -175v143l132 105l-132 107z" />
<glyph unicode="&#xbc;" horiz-adv-x="1167" d="M66 864q31 2 58.5 8t49.5 18t38 33q14 21 22 54h105v-607h-119v408q-30 -14 -66 -20q-36 -4 -86 -6zM250 0l570 1000h128l-569 -1000h-129zM652 230l288 378h94l-1 -370h82l1 -111h-82v-127h-118l-1 127h-262zM785 238h129l1 168z" />
<glyph unicode="&#xbd;" horiz-adv-x="1167" d="M66 864q31 2 58.5 8t49.5 18t38 33q14 21 22 54h105v-607h-119v408q-30 -14 -66 -20q-36 -4 -86 -6zM207 0l569 1000h130l-570 -1000h-129zM670 0q4 60 19 102t39.5 73t55.5 53q32 20 66 40t61 37t45 34t28 36t10 45q0 37 -24 57.5t-64 20.5q-26 0 -44 -11t-29.5 -30 t-17 -43t-5.5 -50h-128q0 52 16 96t45 76.5t70 51t92 18.5q44 0 83.5 -13t68.5 -37t46.5 -58.5t17.5 -77.5q0 -46 -18.5 -81.5t-47.5 -64t-63 -50.5t-65 -40q-11 -6 -25 -13.5t-28 -17t-28 -21.5t-25 -26h293v-106h-444z" />
<glyph unicode="&#xbe;" horiz-adv-x="1167" d="M72 582h130q1 -29 6.5 -50.5t17.5 -34.5t30.5 -19.5t44.5 -6.5q20 0 39 5.5t34.5 15.5t24.5 25t10 34q0 24 -9.5 40t-24.5 25.5t-34.5 14t-39.5 4.5h-39l1 103h29q17 0 33.5 4t29.5 12t21 20t8 29t-7.5 29.5t-19 21t-26.5 12.5t-31 4q-24 0 -41 -7.5t-27 -21.5t-14 -33.5 t-4 -43.5h-126q4 50 19 90t41 68t64 42.5t88 14.5q45 0 83.5 -10.5t66 -32.5t43.5 -55t16 -78q0 -30 -16.5 -58.5t-44.5 -48.5q44 -22 65 -58t23 -83q0 -48 -20 -84.5t-52.5 -60.5t-75 -36t-86.5 -12q-48 0 -90 13.5t-73 40.5t-49 68.5t-18 97.5zM330 0l570 1000h128 l-572 -1000h-126zM672 230l288 378h94v-370h82v-111h-82v-127h-118v127h-262zM806 238h128l2 168z" />
<glyph unicode="&#xd7;" horiz-adv-x="717" d="M21 641l94 90l243 -260l246 260l95 -90l-251 -266l252 -265l-94 -90l-246 260l-244 -260l-94 90l248 265z" />
<glyph unicode="&#xf7;" horiz-adv-x="833" d="M47 442h733l2 -133h-734zM310 100q0 22 9 41.5t23 34.5t33 24t39 9q22 0 41 -9t34 -24t23.5 -34.5t8.5 -41.5q0 -20 -8.5 -37.5t-22.5 -31.5t-33 -22.5t-39 -8.5q-21 0 -40.5 8t-34.5 21.5t-24 31.5t-9 39zM310 649q0 22 9 41t23 33.5t33 23.5t39 9q22 0 41 -9t34 -23.5 t24 -34t9 -40.5q0 -20 -9 -39.5t-23.5 -33.5t-33 -22.5t-40.5 -8.5q-21 0 -40 8.5t-33.5 22.5t-23.5 33.5t-9 39.5z" />
<glyph unicode="&#xe01;" horiz-adv-x="884" d="M22 582q8 34 22.5 67t38 64t55 57.5t73 46t93.5 30.5t114 11q74 0 131.5 -13.5t101 -38t73 -57.5t48 -72t26.5 -82.5t8 -88.5l1 -506h-170l-3 520q0 36 -10.5 70t-36 62t-66.5 45t-103 18q-52 0 -91 -11.5t-66 -29.5t-42 -38.5t-19 -37.5q12 -12 23 -27.5t19 -34 t12 -40.5t4 -44l2 -452h-168v454q0 17 -3.5 34.5t-11 34.5t-21.5 32q-12 15 -34 27z" />
<glyph unicode="&#xe02;" horiz-adv-x="778" d="M18 704v136h256l135 -656l135 656h174l-186 -840h-248l-158 704h-108z" />
<glyph unicode="&#xe03;" horiz-adv-x="798" d="M30 840h160q0 -16 3 -31t10 -26t18 -18t25 -7t25 6t19 17t12.5 26t4.5 33h163l1 -174q0 -24 -8 -45t-23 -41t-37 -42q-22 -20 -51 -48q-20 -20 -34 -37t-23 -34t-13 -35q-6 -18 -6 -40l2 -53q0 -39 10 -69t28.5 -51t44 -31.5t56.5 -10.5q28 0 52.5 7.5t43 25.5t29.5 46 q10 28 9 70l1 562h168l-1 -574q0 -74 -24.5 -128t-66.5 -89t-97 -52t-115 -17q-62 0 -118 18t-99 54t-68 90t-26 124v39q0 34 1.5 60.5t6 47.5t12 38t20 33t29.5 31.5t41 33.5q12 8 25 18.5t24.5 22t20.5 25.5t13 30q-14 -10 -35 -16.5t-43 -6.5q-14 0 -34 3t-41 12t-42 24 t-37 39t-26 58t-10 82z" />
<glyph unicode="&#xe04;" horiz-adv-x="893" d="M76 486q0 47 7 92.5t24 87t44.5 77t68.5 61t97 40t129 14.5q72 0 128 -14.5t97 -40t68 -61t44 -77t24 -87.5t7 -92l1 -486h-170l-1 504q0 24 -4 48t-13.5 47t-25 43t-37.5 35t-51.5 23t-67.5 8t-67.5 -8t-51.5 -23t-37.5 -35t-25 -43t-14 -47t-4.5 -48l-1 -113 q23 33 48.5 56t56.5 38t69 21t86 6l-2 -148q-74 0 -123 -19t-79 -55.5t-43 -88.5t-13 -117l2 -84h-168z" />
<glyph unicode="&#xe05;" horiz-adv-x="901" d="M78 0v494q0 41 4.5 81t16.5 77t32 69.5t50 59t71 45t95 26.5l101 -110l98 110q56 -8 98 -26t73 -44t51 -59t32 -70t17 -77t5 -82l2 -494h-170l-2 510q0 22 -3 48t-11 50.5t-22 45t-34 30.5l-104 -108q-4 -4 -10 -8.5t-18 -4.5q-11 0 -18 4q-8 5 -14 9l-109 108 q-19 -10 -31.5 -30t-20 -44t-10.5 -50t-3 -50v-119q23 33 48.5 56t56.5 38t69 21t86 6l-2 -148q-74 0 -123 -19t-79 -55.5t-43 -88.5t-13 -117l2 -84h-168z" />
<glyph unicode="&#xe06;" horiz-adv-x="891" d="M30 840h160q0 -16 3 -31t10 -26t18 -18t25 -7t25 6t19 17t12.5 26t4.5 33h163v-172q0 -32 -10 -58t-27 -48.5t-39 -42.5t-46 -40q-21 -18 -34.5 -32t-21.5 -30t-11 -37q-3 -20 -3 -52q0 -38 15 -73.5t43 -63t68 -44t90 -16.5q33 0 60.5 10.5t46.5 29.5t29.5 46t10.5 61 l1 562h170v-547q0 -69 -14 -126.5t-49 -98.5t-92 -63.5t-143 -22.5q-79 0 -140.5 26t-103.5 82l-2 -90h-162v299q0 36 1 62.5t5 47t11 37t19 31t28 29.5t38 34q12 11 24 21.5t22.5 22t19 25t14.5 32.5q-16 -8 -33 -12.5t-35 -4.5q-14 0 -34 3t-41 11t-42 23t-37 39t-26 58 t-10 82z" />
<glyph unicode="&#xe07;" horiz-adv-x="661" d="M20 504h176l129 -348q6 -17 17 -25q10 -8 24 -8q22 0 35 12t15 29l-2 544h-116v132h286l-2 -650q0 -56 -17 -96t-46 -65t-69 -37t-86 -12t-79.5 11t-58.5 32t-42.5 51t-31.5 66z" />
<glyph unicode="&#xe08;" horiz-adv-x="811" d="M48 584q10 62 39 112t74.5 86t108 55t140.5 19q39 0 79 -6t77.5 -19t69.5 -35t56 -54t37.5 -76.5t12.5 -102.5q0 -32 -10 -75.5t-25 -92t-35 -101t-41 -104t-43 -100t-41 -90.5h-211l-135 372h-113v134h244l114 -330q18 44 39 95t38 100.5t29 96.5q10 46 12 83 q1 82 -41.5 123t-127.5 41q-68 0 -107 -31q-40 -30 -56 -100h-184z" />
<glyph unicode="&#xe09;" horiz-adv-x="884" d="M56 570q6 57 30 108.5t69.5 91.5t114 64t162.5 24q74 0 131 -14t99 -39t69.5 -59.5t44 -75t23.5 -86.5t8 -92v-492h-162l-5 94q-45 -60 -108.5 -87t-150.5 -27q-88 0 -146.5 23.5t-93.5 66.5t-50 103t-15 132v164h168v-180q0 -34 11.5 -62.5t32 -49t50 -31.5t65.5 -11 q59 0 103 18.5t73 52t43 79t14 98.5v125q0 36 -10 72t-33 64.5t-63 46t-100 17.5q-54 0 -90 -12.5t-59 -33t-34.5 -44.5t-15.5 -48h-175z" />
<glyph unicode="&#xe0a;" horiz-adv-x="790" d="M32 684l2 131q26 9 50 16t45 12t38 7t27 2q48 0 86 -11t65 -34t39 -58t6 -81q-4 -23 -12 -43.5t-21.5 -43t-32.5 -49.5q-20 -26 -44 -61q-13 -18 -19.5 -33t-9.5 -29.5t-3 -29.5t-2 -33l1 -55q0 -39 11.5 -69t32.5 -51t49 -31q26 -11 58 -11q30 0 56 7.5t45.5 25.5 t30.5 46q10 28 10 70l2 56q0 47 -11 74.5t-31 41.5t-49 18t-65 5l-1 123q49 0 82 15t53.5 46t29.5 77q8 46 9 106h170q0 -46 -6.5 -92t-23.5 -86t-45 -72t-70 -52q30 -9 51 -23t35 -31.5t22 -37t12 -39t5 -38.5t1 -35l-1 -68q0 -49 -11.5 -89.5t-33 -72.5t-51 -55t-64.5 -39 t-73.5 -23t-78.5 -7q-62 0 -119 18t-101.5 54t-71.5 90t-27 124v68q0 32 2 56t6 43t10.5 34t16 29.5t21.5 30t29 34.5q12 16 21.5 28.5t16.5 24t12 23t7 25.5q2 12 -1 22.5t-10 18t-17 11.5q-10 5 -22 5q-14 0 -27 -2t-29 -6.5t-36 -11t-46 -15.5z" />
<glyph unicode="&#xe0b;" horiz-adv-x="841" d="M14 840h160q0 -16 3 -31t10 -26t18 -18t25 -7t25 6t19 17t12 26t4 33h164v-174q0 -24 -6 -45t-18 -40.5t-31 -41t-45 -47.5q-20 -20 -31 -45t-16 -51t-6 -53.5t-1 -51.5q0 -39 12 -69t32 -51t48 -31q28 -11 58 -11t56 7.5t45 25.5t30 46t11 70v54q0 44 -10.5 71.5t-30 43 t-46.5 20.5t-59 6l-2 123q46 3 78 19.5t52 47.5t29 75t9 102h168q0 -46 -7 -92t-23 -86t-44 -72t-71 -52q45 -14 71 -39t38.5 -54t15.5 -59q2 -30 2 -54v-66q0 -49 -12 -89.5t-33.5 -72.5t-51 -55t-64.5 -39t-74 -23t-79 -7q-41 0 -80.5 8t-74.5 24t-65 40t-52 56t-34 71.5 t-12 86.5q0 50 1 90t10 73.5t27.5 64t53.5 61.5q7 7 16.5 17t18.5 23t17 26t12 26q-18 -12 -39 -18.5t-43 -6.5q-14 0 -34 3t-41 12t-42 24t-37 39t-26 58t-10 82z" />
<glyph unicode="&#xe0c;" horiz-adv-x="1325" d="M22 582q8 34 23 67t37.5 64t54 57.5t70.5 46t87.5 30.5t106.5 11q70 0 125.5 -13.5t96.5 -38t69 -57.5t46 -72t25.5 -83t7.5 -90l1 -136q0 -52 12 -95t36 -75t59 -50.5t81 -18.5q27 0 48.5 7.5t36.5 25.5t23 46t7 70l2 562h170l-1 -547q0 -74 -13.5 -132.5t-44.5 -98.5 t-82.5 -61t-128.5 -21q-36 0 -66.5 8t-57.5 23t-49 35t-39 44l-1 -90h-162l-2 520q0 34 -10 69t-33 62.5t-61.5 45t-94.5 18.5q-46 0 -81 -10t-60 -27t-40 -38t-20 -42q31 -22 45 -61q13 -39 13 -87l2 -313h90v-137h-258l-2 452q0 18 -2.5 36t-10 35t-21.5 32q-12 15 -34 27 z" />
<glyph unicode="&#xe0d;" horiz-adv-x="1325" d="M22 572q8 34 22.5 69t37.5 67t54 59t70.5 47.5t88 32t106.5 11.5q70 0 125.5 -14t96.5 -39t69 -59.5t46 -75t26 -86.5t8 -92l-2 -148q0 -43 8 -72.5t23.5 -47.5t37 -26t48.5 -8q46 0 81 19.5t59 53t36.5 78.5t12.5 97l1 402h170v-666q0 -60 -6.5 -106t-16.5 -80.5 t-23 -59t-26 -42.5l1 2q-26 -38 -57.5 -64t-68 -43t-76.5 -24q-42 -7 -84 -7q-58 0 -111 15t-95 46t-71 78t-37 111h159q8 -28 24 -49t37 -35t45 -21t47 -7q55 0 92.5 19t59.5 49t31 67t8 73l1 54q-18 -22 -41 -43t-50 -36t-57 -24.5t-64 -9.5q-77 0 -128.5 21.5t-82.5 62.5 t-44 101t-12 138l-1 148q0 36 -10 71.5t-33 64t-61.5 46.5t-95.5 18q-46 0 -81 -10t-59.5 -27t-39 -39t-20.5 -44q31 -22 45.5 -62t14.5 -90v-299h90v-137h-258l-1 438q0 18 -3 36.5t-10.5 36t-21.5 33.5q-13 16 -34 28z" />
<glyph unicode="&#xe0e;" horiz-adv-x="919" d="M44 137h82v317q0 17 -3 34.5t-10.5 34.5t-21 32t-35.5 27q8 34 23 67t38 64t55 57.5t73.5 46t93 30.5t113.5 11q74 0 132 -13.5t101 -38t73 -57.5t48 -72t26 -82.5t8 -88.5l2 -795h-164q-12 18 -29 35.5t-41 30.5t-57 21t-78 8q-36 0 -68 -8t-61.5 -23t-56.5 -37 q-27 -24 -53 -52l1 162q18 20 43.5 37t56.5 30t66 20t74 7q36 0 66 -5t54.5 -12.5t42.5 -16.5q19 -8 32 -16v628q0 36 -11 70t-36.5 62t-67 45t-103.5 18q-52 0 -90.5 -11.5t-65 -29.5t-42 -38.5t-19.5 -37.5q12 -12 23 -27.5t18.5 -34t11.5 -40.5t4 -44l3 -452h-250z" />
<glyph unicode="&#xe0f;" horiz-adv-x="919" d="M44 137h82v317q0 17 -3 34.5t-10.5 34.5t-21 32t-35.5 27q8 34 23 67t38 64t55 57.5t73.5 46t93 30.5t113.5 11q74 0 132 -13.5t101 -38t73 -57.5t48 -72t26 -82.5t8 -88.5l2 -795h-168q-3 14 -10 31.5t-18.5 32.5t-26.5 25t-37 10q-20 0 -35 -10t-25.5 -24.5t-15 -32 t-4.5 -32.5h-142q0 11 -3 28t-12 33t-24 28t-37 12q-18 0 -31 -9.5t-21.5 -24t-12 -32.5t-3.5 -35h-134q0 60 16 103.5t43.5 71.5t61 41t67.5 13q50 0 88.5 -20t63.5 -57q14 18 31.5 31.5t36 22.5t37.5 13t35 4q37 0 63.5 -11t45.5 -27l-1 624q0 36 -11 70t-36.5 62t-67 45 t-103.5 18q-52 0 -90.5 -11.5t-65 -29.5t-42 -38.5t-19.5 -37.5q12 -12 23 -27.5t18.5 -34t11.5 -40.5t4 -44l3 -452h-250z" />
<glyph unicode="&#xe10;" horiz-adv-x="807" d="M42 576q10 62 40 114t77 89t111 58t142 21q36 0 71 -5t67 -15q17 3 30 11.5t21.5 20.5t12.5 26t4 28h181q0 -24 -6.5 -50t-19.5 -50t-34 -44q-21 -18 -51 -30q27 -32 41 -78.5t13 -108.5q0 -32 -9 -74.5t-24.5 -91.5t-35.5 -101.5t-41.5 -104t-43.5 -100.5t-41 -91h-211 l-136 375h-112v131h244l114 -328q19 44 39.5 94t37.5 99.5t29 96.5q10 46 12 83q1 82 -41.5 123t-127.5 41q-68 0 -110.5 -35.5t-58.5 -103.5h-184zM91 -295q-2 41 4.5 72t19.5 53t31 37t36.5 23.5t36.5 12t32 3.5q32 0 57.5 -11t41.5 -30q24 23 48 32t42 9q24 0 42 -6.5 t35 -20.5v57h170v-231h-165q-4 36 -18 54q-16 18 -42 18q-12 0 -21 -5.5t-15 -15.5t-9 -23t-2 -28h-97q0 14 -3.5 27.5t-10 23.5t-16.5 15.5t-22 5.5q-13 0 -22 -6t-14.5 -16t-8.5 -23t-3 -27h-127z" />
<glyph unicode="&#xe11;" horiz-adv-x="891" d="M30 840h160q0 -17 3 -32t10 -26t18 -17.5t25 -6.5q28 0 44 22t17 60h163l-1 -60q32 23 62.5 38.5t57.5 24.5t51 13t42 4q42 0 67 -13t39 -37t19 -58t5 -76l1 -676h-170l-1 622q0 16 -0.5 30.5t-3 25t-6.5 16.5t-11 6q-31 0 -96 -54.5t-162 -166.5q-17 -20 -30 -35.5 t-23 -28.5t-16.5 -26t-10.5 -27.5t-6.5 -32t-2.5 -40.5l2 -289h-170v272q0 32 0.5 56t3 43.5t8.5 36t16 33.5t25 35t37 42q26 28 45 47t32 33t20 25.5t9 23.5q-8 -4 -18 -8.5t-21 -7.5t-22.5 -6t-20.5 -3q-14 0 -34 3t-41 11t-41.5 23t-37 39t-26.5 59t-10 83z" />
<glyph unicode="&#xe12;" horiz-adv-x="1360" d="M76 518q0 40 4.5 77.5t15.5 71.5t30 63.5t48.5 53.5t69.5 41t95 25l103 -106l96 106q56 -8 97.5 -24t71 -39.5t48.5 -53.5t30.5 -64.5t15.5 -72.5t4 -78l1 -150q0 -52 12.5 -95t36.5 -75t59 -50q34 -19 80 -19q28 0 50 7.5t36.5 25.5t21.5 46q8 28 8 70l2 562h170 l-1 -547q0 -74 -13.5 -132.5t-44.5 -98.5t-83 -61t-128 -21q-36 0 -67 8t-57.5 23t-48.5 35q-21 20 -39 44l1 -90h-164l-1 534q0 22 -2 45t-8 44t-17.5 37.5t-31.5 25.5l-107 -102q-2 -3 -10 -7.5t-18 -4.5t-19 4t-13 8l-108 104q-17 -10 -28 -27.5t-17.5 -38.5t-9.5 -43.5 t-3 -44.5l1 -308q28 36 62.5 75t66.5 78h-60v127h244v-117l-320 -389h-160z" />
<glyph unicode="&#xe13;" horiz-adv-x="1325" d="M22 582q8 34 23 67t37.5 64t54 57.5t70.5 46t87.5 30.5t106.5 11q70 0 125.5 -13.5t96.5 -38t69 -57.5t46 -72t25.5 -83t7.5 -90l-1 -226q0 -42 8.5 -70t24 -46t37 -25.5t48.5 -7.5q46 0 81 18.5t59 50.5t36 76q12 42 12 94l1 472h170v-840h-163l-4 90q-18 -24 -40 -44 t-49 -35t-57 -23q-32 -8 -66 -8q-77 0 -128.5 21t-82.5 61t-43.5 98t-12.5 133l-1 227q0 34 -10 69t-33 62.5t-61.5 45t-94.5 18.5q-46 0 -80.5 -9.5t-59.5 -26.5t-40 -38t-21 -43q31 -22 45 -61q13 -39 13 -87l2 -313h90v-137h-258l-2 452q0 18 -2.5 36t-10 35t-21.5 32 q-12 15 -34 27z" />
<glyph unicode="&#xe14;" horiz-adv-x="901" d="M78 0v502q0 45 6.5 88.5t23 83.5t44.5 73.5t69.5 58t98 38.5t130.5 14q73 0 129.5 -14t97.5 -38.5t69 -58t45 -73.5t24 -83.5t8 -88.5l1 -502h-170l-2 518q0 34 -8.5 69.5t-31 64t-61.5 46t-101 17.5q-42 0 -73 -8.5t-54 -22.5t-38 -33t-24 -41t-13 -45.5t-4 -46.5v-299 l142 160h-66v129h254v-119l-336 -389h-160z" />
<glyph unicode="&#xe15;" horiz-adv-x="907" d="M76 506q0 59 12 115.5t43 103.5t84 80t135 45l104 -104l96 104q84 -11 138 -43.5t85 -79.5t43 -104t12 -117l2 -506h-168l-3 520q0 21 -4.5 45.5t-13.5 47.5t-22 43t-32 30l-105 -102q-5 -4 -11.5 -8t-16.5 -4q-11 0 -20 4q-8 4 -12 8l-108 104q-21 -10 -34.5 -29 t-21.5 -42t-11 -48.5t-3 -48.5v-299l142 158h-66v127h256v-117l-338 -389h-160z" />
<glyph unicode="&#xe16;" horiz-adv-x="868" d="M22 582q8 34 22 67t36 64t53 57.5t71.5 46t91.5 30.5q52 11 114 11q74 0 131 -13.5t99 -38t71 -57.5t46 -72t24.5 -82.5t7.5 -88.5l1 -506h-168l-2 520q0 36 -10 70t-34 62t-65 45t-102 18q-52 0 -89.5 -11.5t-62.5 -29.5t-39 -39t-18 -37q16 -10 27 -26t18 -34.5t10 -40 t3 -45.5l2 -315h90v-137h-258v454q0 17 -3.5 34.5t-11 34.5t-21.5 32q-12 15 -34 27z" />
<glyph unicode="&#xe17;" horiz-adv-x="884" d="M78 0v840h164v-102q44 60 108 91t151 31q88 0 146.5 -24t93.5 -67t50 -103t15 -132l1 -534h-168l-1 551q0 34 -11 62.5t-31.5 48.5t-49.5 31t-65 11q-60 0 -103.5 -18.5t-72.5 -52t-43 -78.5q-16 -45 -16 -99l2 -456h-170z" />
<glyph unicode="&#xe18;" horiz-adv-x="839" d="M76 246v176h168v-176q0 -34 16 -57t41 -37t56 -20.5t61 -6.5q28 0 59 5t57 18.5t43 37t17 60.5q0 20 -3 36t-11 30t-24 27t-41 25t-60.5 25t-84.5 29q-40 12 -78 24t-70.5 25.5t-60 30t-46.5 37.5t-29 48.5t-9 63.5q1 38 15 68.5t36.5 54t53 40t65.5 26.5t72 15t75 5 q75 0 139 -15t110.5 -49t73.5 -87t27 -127h-170q0 38 -12.5 64t-35 43t-53.5 24.5t-71 7.5q-32 0 -60 -2.5t-49.5 -9.5t-34 -19t-12.5 -30q0 -13 12 -25.5t32 -24t45 -21.5t49 -18.5t45.5 -14.5t34.5 -10q49 -15 90.5 -29.5t75.5 -31.5t59.5 -38t43 -49t25.5 -64t8 -84 q0 -47 -13 -84.5t-37 -67t-56 -50.5t-71 -34.5t-82 -19.5t-88 -6q-46 0 -88.5 6t-80.5 20t-70 35t-55 50t-36 67t-13 84z" />
<glyph unicode="&#xe19;" horiz-adv-x="884" d="M76 305l2 535h168l-2 -551q0 -34 11.5 -62.5t32 -49t50 -31.5t65.5 -11q59 0 103 18.5t73 52t43 79t14 98.5v457h170l1 -840h-164l-3 102q-44 -60 -108 -91t-151 -31q-88 0 -146.5 23.5t-93.5 66.5t-50 103t-15 132z" />
<glyph unicode="&#xe1a;" horiz-adv-x="884" d="M76 354l2 486h168v-502q0 -36 9 -73t31.5 -67t60 -48.5t94.5 -18.5t94.5 18.5t60 48.5t31.5 67t9 73v502h170v-490q0 -47 -7 -92.5t-23 -86.5t-43 -76t-67.5 -60t-96 -39t-127.5 -14q-73 0 -128.5 14t-96.5 40t-68 61t-43 77t-23 88t-7 92z" />
<glyph unicode="&#xe1b;" horiz-adv-x="884" d="M76 354l2 486h168v-502q0 -36 9 -73t31.5 -67t60 -48.5t94.5 -18.5t94.5 18.5t60 48.5t31.5 67t9 73v868h170v-856q0 -47 -7 -92.5t-23 -86.5t-43 -76t-67.5 -60t-96 -39t-127.5 -14q-73 0 -128.5 14t-96.5 40t-68 61t-43 77t-23 88t-7 92z" />
<glyph unicode="&#xe1c;" horiz-adv-x="948" d="M76 238l2 602h278l-2 -138h-110v-438q0 -38 5 -64t13.5 -43t22 -24.5t30.5 -7.5q27 0 42 14t21.5 38.5t8 57.5t1.5 70v133h168v-133q0 -38 2 -70.5t10 -57t24 -38.5q14 -14 42 -14q17 0 30 7.5t21.5 24.5t12.5 43t4 64v576h168l-1 -602q0 -66 -15 -114t-42.5 -79 t-66.5 -46t-88 -15q-60 0 -108.5 25t-76.5 71q-24 -50 -67 -73t-109 -23q-50 0 -90.5 15t-69 46t-44.5 79t-16 114z" />
<glyph unicode="&#xe1d;" horiz-adv-x="948" d="M76 238l2 602h278l-2 -138h-110v-438q0 -38 5 -64t13.5 -43t22 -24.5t30.5 -7.5q27 0 42 14t21.5 38.5t8 57.5t1.5 70v133h168v-133q0 -38 2 -70.5t10 -57t24 -38.5q14 -14 42 -14q17 0 30 7.5t21.5 24.5t12.5 43t4 64v942h168l-1 -968q0 -66 -15 -114t-42.5 -79 t-66.5 -46t-88 -15q-60 0 -108.5 25t-76.5 71q-24 -50 -67 -73t-109 -23q-50 0 -90.5 15t-69 46t-44.5 79t-16 114z" />
<glyph unicode="&#xe1e;" horiz-adv-x="1112" d="M24 840h186l122 -602l130 602h187l131 -596l121 596h184l-213 -840h-184l-137 596l-127 -596h-186z" />
<glyph unicode="&#xe1f;" horiz-adv-x="1112" d="M24 840h186l122 -602l130 602h187l131 -596l182 962h184l-274 -1206h-184l-137 596l-127 -596h-186z" />
<glyph unicode="&#xe20;" horiz-adv-x="919" d="M44 137h82v317q0 17 -3 34.5t-10.5 34.5t-21 32t-35.5 27q8 34 23 67t38 64t55 57.5t73.5 46t93 30.5t113.5 11q74 0 132 -13.5t101 -38t73 -57.5t48 -72t26 -82.5t8 -88.5l2 -506h-170l-2 520q0 36 -11 70t-36.5 62t-67 45t-103.5 18q-52 0 -90.5 -11.5t-65 -29.5 t-42 -38.5t-19.5 -37.5q12 -12 23 -27.5t18.5 -34t11.5 -40.5t4 -44l3 -452h-250z" />
<glyph unicode="&#xe21;" horiz-adv-x="884" d="M78 0v840h170l-2 -457q0 -53 15 -98.5t44 -79t73 -52t103 -18.5q36 0 65 11t49.5 31.5t31.5 48.5t10 63l1 551h168v-535q0 -72 -15 -132t-50 -103t-94 -66.5t-147 -23.5q-86 0 -149 31t-109 91v-102h-164z" />
<glyph unicode="&#xe22;" horiz-adv-x="862" d="M62 264q0 32 4.5 61t15.5 53t29 44q18 18 46 32q-30 17 -48 38.5t-28 45.5t-13.5 48.5t-3.5 46.5q0 41 11 72t29 54t42.5 38.5t51 25t54.5 13.5t53 4h127l-1 -144h-92q-12 0 -29 -1.5t-33.5 -9t-27.5 -22.5t-11 -41q0 -28 9 -46t24 -28.5t35 -15t43 -6.5h81v-141h-82 q-24 -1 -44.5 -6t-35 -17t-22.5 -34q-6 -22 -6 -58q0 -38 15 -65t41 -45.5t59.5 -27.5t70.5 -9q40 0 75 10.5t60.5 34.5t40 62t13.5 94l1 516h168l-1 -545q0 -77 -28.5 -136t-77 -99t-113.5 -60t-138 -20q-46 0 -90.5 7t-85 23t-74.5 39t-59.5 55t-40 72t-14.5 88z" />
<glyph unicode="&#xe23;" horiz-adv-x="745" d="M41 278h170q4 -42 15.5 -71t32 -47t50 -26.5t69.5 -8.5q23 0 49.5 4.5t48.5 16.5t37 33t15 55q0 26 -11 43t-32.5 32t-54.5 29q-34 14 -79 32q-40 16 -76.5 31t-68.5 31t-58 34t-44.5 41t-29 52t-10.5 65q0 40 11 73.5t32 59t49 44.5t61 31t68 18t69 6q68 0 125 -13 t99 -44.5t66 -84t28 -132.5h-168q-4 38 -15 64t-28 42.5t-41 23.5t-53 7q-22 0 -44.5 -5t-41 -15.5t-30.5 -28.5t-12 -44q0 -20 10.5 -35t32.5 -28t55 -26.5t79 -30.5q83 -30 137.5 -57.5t86.5 -58.5t45 -68.5t12 -85.5q0 -70 -24.5 -118t-68.5 -78t-103.5 -43t-128.5 -13 q-68 0 -126 15.5t-102 51t-71 91.5t-32 136z" />
<glyph unicode="&#xe24;" horiz-adv-x="868" d="M22 582q8 34 22 67t36 64t53 57.5t71.5 46t91.5 30.5q52 11 114 11q74 0 131 -13.5t99 -38t71 -57.5t46 -72t24.5 -82.5t7.5 -88.5l-1 -778h-168v792q0 36 -10 70t-34 62t-65 45t-102 18q-52 0 -89.5 -11.5t-62.5 -29.5t-39 -39t-18 -37q16 -10 27 -26t18 -34.5t10 -40 t3 -45.5l2 -315h90v-137h-258v454q0 17 -3.5 34.5t-11 34.5t-21.5 32q-12 15 -34 27z" />
<glyph unicode="&#xe25;" horiz-adv-x="864" d="M53 223q0 50 11.5 87.5t34 65.5t55 47t74 33.5t91.5 24.5q50 11 107 19q36 6 71 11t62 14t43 25t16 42q0 40 -15.5 65t-40 37.5t-54.5 16.5t-60 4q-40 0 -74 -8t-59 -26.5t-40 -49.5t-18 -76h-172q2 56 16 100.5t39 77.5t59.5 57t75.5 38t87 21t95 7q39 0 78 -5t76 -16 t68.5 -29.5t55 -46t36.5 -65.5t13 -88l2 -606h-168v408q-16 -7 -34.5 -12.5t-38.5 -9t-41 -6.5q-22 -3 -42 -5q-29 -4 -57.5 -8t-55.5 -10.5t-49.5 -16.5t-39 -25t-26.5 -35t-9 -48q0 -32 13.5 -53t35 -34t49 -18.5t55.5 -5.5q23 0 47.5 4t51.5 10l-1 -133 q-35 -9 -65.5 -14.5t-64.5 -5.5q-59 0 -112.5 13t-93.5 41.5t-64 74.5t-23 112z" />
<glyph unicode="&#xe26;" horiz-adv-x="919" d="M44 137h82v317q0 17 -3 34.5t-10.5 34.5t-21 32t-35.5 27q8 34 23 67t38 64t55 57.5t73.5 46t93 30.5t113.5 11q74 0 132 -13.5t101 -38t73 -57.5t48 -72t26 -82.5t8 -88.5v-778h-170v792q0 36 -11 70t-36.5 62t-67 45t-103.5 18q-52 0 -90.5 -11.5t-65 -29.5t-42 -38.5 t-19.5 -37.5q12 -12 23 -27.5t18.5 -34t11.5 -40.5t4 -44l3 -452h-250z" />
<glyph unicode="&#xe27;" horiz-adv-x="786" d="M54 542q2 70 27 129t67 101t101 65t131 23q90 0 157 -32t110.5 -89.5t65 -138.5t21.5 -180t-21 -180t-65 -138.5t-110 -88.5q-68 -31 -158 -31q-72 0 -131 23t-101 65t-66 100t-27 129h170q3 -46 15.5 -79.5t33 -54.5t47.5 -31.5t58 -10.5q42 0 75 17.5t56.5 54.5 t36.5 93t13 132t-13 133t-36 93.5t-57 54.5q-32 18 -74 18q-32 0 -59 -10.5t-47 -31.5t-33 -55t-17 -80h-170z" />
<glyph unicode="&#xe28;" horiz-adv-x="893" d="M76 486q0 47 7 92.5t24 87t44.5 77t68.5 61t97 40t129 14.5q48 0 88 -6t72 -18q17 1 30 9.5t21.5 21t13 28t5.5 31.5h180q0 -24 -7 -52t-21 -53.5t-36 -46t-52 -32.5q20 -26 34 -56t23 -62.5t13 -67t4 -68.5l1 -486h-170l-1 504q0 24 -4 48t-13.5 47t-25 43t-37.5 35 t-51.5 23t-67.5 8t-67.5 -8t-51.5 -23t-37.5 -35t-25 -43t-14 -47t-4.5 -48l-1 -113q23 33 48.5 56t56.5 38t69 21t86 6l-2 -148q-74 0 -123 -19t-79 -55.5t-43 -88.5t-13 -117l2 -84h-168z" />
<glyph unicode="&#xe29;" horiz-adv-x="884" d="M77 340l1 500h168l-2 -514q0 -36 8 -71.5t29 -64.5t59 -47t100 -18t100 18t59.5 47t29 64.5t6.5 71.5l1 65h-244v195h160v-60h84v314h170v-314h76l-1 -135h-75v-51q0 -45 -6 -89.5t-21.5 -84t-42 -73.5t-66.5 -58.5t-96.5 -38.5t-131.5 -14q-76 0 -132.5 14t-97 38.5 t-67 58.5t-42 73.5t-21 84t-5.5 89.5z" />
<glyph unicode="&#xe2a;" horiz-adv-x="864" d="M53 223q0 56 16 96.5t43.5 70t65.5 48.5t81 31.5t89 20.5t92 14q34 4 65.5 10t56 15t40.5 24t16 39q0 40 -15.5 65t-40 37.5t-54.5 16.5t-60 4q-40 0 -74 -7.5t-59 -26t-41 -49.5q-16 -30 -18 -75h-172q2 56 17 100.5t40 77.5t59.5 57t75 38t87.5 21t95 7q37 0 75.5 -5 t72.5 -15q18 2 32 10t23.5 20t14.5 26q5 16 6 30h180q0 -23 -6 -50t-20 -52t-36 -46q-24 -20 -54 -30q16 -28 27 -63t11 -77l2 -606h-168l-1 412q-32 -14 -72.5 -23t-82.5 -14q-44 -4 -86 -11.5t-76 -22t-55 -40t-21 -67.5q0 -32 13.5 -53t35 -34t49 -18.5t55.5 -5.5 q23 0 48 4t51 10v-135q-35 -9 -65.5 -13.5t-64.5 -4.5q-59 0 -112.5 12.5t-93.5 41t-64 74t-23 111.5z" />
<glyph unicode="&#xe2b;" horiz-adv-x="866" d="M78 0v840h168l-2 -295l344 295h245l-187 -158q44 -18 71 -47t43 -67t21.5 -85t5.5 -100l1 -383h-168v400q0 30 -6 58t-17.5 52t-30 41t-45.5 23l-275 -236v-338h-168z" />
<glyph unicode="&#xe2c;" horiz-adv-x="1112" d="M20 840h188l103 -617l142 485h174l149 -487q8 42 16 81.5t15.5 78.5l15 78t15.5 79q7 31 8.5 52.5t1.5 40.5q0 22 -5 38.5t-17 28t-32 17.5t-48 6l1 119q40 2 72 10t55.5 23.5t37.5 40t18 59.5h192q-6 -44 -20 -78.5t-34.5 -59.5t-47 -41t-56.5 -24q22 -19 35 -43.5 t18 -51.5t3 -57q0 -29 -8 -59l-138 -559h-186l-152 482l-143 -482h-186z" />
<glyph unicode="&#xe2d;" horiz-adv-x="852" d="M48 418v14v21v26h378v-133h-205q2 -50 18 -91t43 -70t63.5 -45.5t80.5 -16.5q48 0 87 19.5t66 57.5t42 93t15 125q0 144 -52 220.5t-158 76.5q-40 0 -74 -9.5t-60 -29t-42 -47.5t-22 -64h-178q14 67 43 121.5t75.5 93t110 59.5t147.5 21q70 0 125.5 -15.5t98 -44 t72.5 -68.5t49 -89t28 -106t9 -119q0 -58 -9 -113t-28 -104t-49 -89t-72.5 -69t-98 -45t-123.5 -16q-70 0 -125 16t-97.5 44.5t-72.5 69t-49 88.5t-27.5 103.5t-8.5 114.5z" />
<glyph unicode="&#xe2e;" horiz-adv-x="848" d="M48 420v59h378l2 -131h-205q2 -50 17.5 -91.5t41.5 -71t63 -45t81 -15.5q48 0 87 19.5t66 57.5t42 93t15 125q0 143 -52 219t-158 76q-79 0 -129.5 -38.5t-68.5 -111.5h-178q14 67 43 122t75 94t110 60t147 21q40 0 77 -6t69 -18q16 2 28.5 9t20.5 19t12 27t5 31h183 q0 -24 -7 -49t-21 -48.5t-34 -43t-48 -31.5q24 -30 42 -68t30 -80t18 -89q8 -47 8 -95q0 -58 -9 -113t-28 -104t-49 -89t-72.5 -69t-98 -45t-123.5 -16q-70 0 -125 16t-97 44.5t-72 69t-49 88.5t-28 103.5t-9 114.5z" />
<glyph unicode="&#xe2f;" horiz-adv-x="868" d="M58 600q0 45 12 80.5t32.5 62t48.5 45t59.5 30t65.5 16.5q34 6 66 6h135l-1 -142h-135q-56 0 -81.5 -24.5t-26.5 -75.5q0 -24 7.5 -48.5t26.5 -43.5t51.5 -31t82.5 -12q108 0 164.5 39.5t56.5 123.5v214h168v-840h-168l-1 391q-40 -34 -95 -50.5t-120 -16.5 q-86 0 -151 19t-109 55.5t-66 87.5t-22 114z" />
<glyph unicode="&#xe30;" horiz-adv-x="506" d="M76 131l1 191h155l-1 -62h201l1 -129h-357zM76 547v193h156v-62h201l-1 -131h-356z" />
<glyph unicode="&#xe31;" d="M-527 968v202h155v-72h400l2 -130h-557z" />
<glyph unicode="&#xe32;" horiz-adv-x="715" d="M22 563q0 48 12 88t33 72.5t50.5 57.5t64 41.5t72.5 25t78 8.5q65 0 120.5 -18t96.5 -54t64 -91t23 -130l1 -563h-168l-1 534q1 90 -34.5 132t-101.5 42q-58 0 -94 -36t-40 -109h-176z" />
<glyph unicode="&#xe33;" horiz-adv-x="715" d="M-338 1112q0 33 12 62t33 50.5t49.5 34.5t61.5 13q32 0 61 -13t51 -34.5t35.5 -50.5t13.5 -62t-13 -62t-35 -50.5t-51.5 -34.5t-61.5 -13t-60.5 13t-50 34.5t-33.5 50.5t-12 62zM-236 1112q0 -12 4.5 -22t12 -18t17.5 -13t21 -5q12 0 22.5 5t18.5 13t12 18t4 22t-4.5 22 t-12 18t-18.5 13t-22 5q-12 0 -22 -5t-17.5 -13t-12 -18t-3.5 -22zM22 563q0 48 12 88t33 72.5t50.5 57.5t64 41.5t72.5 25t78 8.5q65 0 120.5 -18t96.5 -54t64 -91t23 -130l1 -563h-168l-1 534q1 90 -34.5 132t-101.5 42q-58 0 -94 -36t-40 -109h-176z" />
<glyph unicode="&#xe34;" d="M-811 966l67 134h666v-134h-733z" />
<glyph unicode="&#xe35;" d="M-811 966l67 134h508l-2 118h159l1 -252h-733z" />
<glyph unicode="&#xe36;" d="M-811 966l67 134h392l-1 14q0 30 11.5 57t31 47t46 32t56.5 12t57 -12t47.5 -32t32 -47t11.5 -57q0 -31 -11 -57.5t-31 -46.5t-46.5 -32t-56.5 -12h-606zM-259 1114q0 -10 4.5 -20t11.5 -16.5t16.5 -10.5t19.5 -4t20 4t17 10.5t11.5 16.5t4.5 20q0 24 -16 39t-37 15 q-10 0 -20 -4t-17 -11.5t-11 -17t-4 -21.5z" />
<glyph unicode="&#xe37;" d="M-811 966l67 134h290l-2 118h152l1 -118h73v118h151l1 -252h-733z" />
<glyph unicode="&#xe38;" d="M-308 -226l2 130h230v-314h-158v184h-74z" />
<glyph unicode="&#xe39;" d="M-608 -226l2 130h234l-1 -115q0 -40 16.5 -61t52.5 -21q34 0 52 21t18 61l1 115h157v-115q0 -44 -12 -82.5t-39 -67.5t-70 -46t-105 -17q-60 0 -102.5 14t-70 40.5t-41.5 63.5q-16 36 -18 80h-74z" />
<glyph unicode="&#xe3a;" d="M-286 -184q0 24 9 44.5t24.5 36t36 24.5t44.5 9q23 0 44 -9t36.5 -24.5t24.5 -36t8 -44.5q0 -23 -8.5 -43.5t-23.5 -36t-35.5 -24.5t-43.5 -9q-24 0 -45 9t-37 24.5t-25 36t-9 43.5z" />
<glyph unicode="&#xe3e;" />
<glyph unicode="&#xe3f;" horiz-adv-x="952" d="M88 1000h306l-1 88h156l1 -90q60 -3 116 -15.5t100 -40.5t70 -76q28 -46 28 -120q0 -73 -26 -125.5t-81 -88.5q36 -16 63.5 -39t46.5 -53.5t28.5 -66.5t9.5 -76q0 -37 -9 -73t-27.5 -69t-45.5 -61.5t-63 -49t-80 -32.5t-96 -12h-33l-1 -94h-156l2 94h-306zM264 848 l2 -260h129l-2 260h-129zM265 150h129v286h-128zM548 848l2 -258q73 8 105.5 40t32.5 89q0 42 -9 66.5t-27.5 38.5t-44.5 18q-27 5 -59 6zM550 150h14q40 0 71 10t52 30t32 48.5t11 64.5q0 38 -15 63.5t-40.5 40.5t-58 21.5t-66.5 7.5v-286z" />
<glyph unicode="&#xe40;" horiz-adv-x="358" d="M94 0v840h170v-840h-170z" />
<glyph unicode="&#xe41;" horiz-adv-x="641" d="M94 0v840h170v-840h-170zM376 840h170l1 -840h-170z" />
<glyph unicode="&#xe42;" horiz-adv-x="426" d="M-6 1090l31 128h410l76 -134h-263q20 -24 30 -53t9 -60l1 -834h88l1 -137h-256l-1 966q0 29 -10 52.5t-27 39t-40 24t-49 8.5z" />
<glyph unicode="&#xe43;" horiz-adv-x="426" d="M-48 996q0 66 20 115t53 81t76.5 48t90.5 16q42 0 81 -10t69.5 -31t49.5 -55q18 -32 18 -80q-1 -26 -9.5 -46t-22 -37.5t-30 -34t-31.5 -36.5q-11 -13 -17 -29.5t-9 -34.5t-3 -36v-34v-655h88l1 -137h-256l-1 792q-1 34 2 61t11 50.5t22.5 45t38.5 45.5q6 6 16 15 t20 19.5t18 21.5t8 21q0 9 -4 18t-11 17t-19 12t-31 4q-20 0 -35.5 -9t-25.5 -25t-15 -40t-5 -52h-158z" />
<glyph unicode="&#xe44;" horiz-adv-x="426" d="M-103 1084l75 134h410l33 -128q-26 0 -49.5 -8.5t-40.5 -24t-27 -38.5t-10 -53v-829h88l1 -137h-256l-2 971q1 30 11 59q8 30 28 54h-261z" />
<glyph unicode="&#xe45;" horiz-adv-x="715" d="M22 563q0 48 12 88t33 72.5t50.5 57.5t64 41.5t72.5 25t78 8.5q65 0 120.5 -18t96.5 -54t64 -91t23 -130l-1 -835h-168l1 806q1 90 -34.5 132t-101.5 42q-58 0 -94 -36t-40 -109h-176z" />
<glyph unicode="&#xe46;" horiz-adv-x="819" d="M54 528q0 62 11 115t40 94.5t79 70.5t130 42l88 -92l79 90q58 -5 100.5 -21t71 -40.5t46 -56.5t26.5 -68t12 -76t3 -82l-1 -774h-170v790q0 23 -0.5 49.5t-5 50t-15 41t-28.5 23.5l-88 -94q-6 -5 -14 -8.5t-16 -3.5q-11 0 -18.5 3.5t-11.5 8.5l-91 92q-34 -22 -48 -62 t-10 -90q0 -18 3.5 -36t13.5 -32t26 -23t40 -9h34l1 -148h-35q-50 0 -96 14t-81 44t-55 76t-20 112z" />
<glyph unicode="&#xe47;" d="M-740 1161q0 51 18 87t49 60t71 35t85 11h407v-121h-394q-30 0 -47 -7.5t-26 -18.5t-11 -23.5t-2 -22.5q0 -6 1 -15.5t6 -18.5t15 -15t26 -6q26 0 39.5 20t12.5 54h114q-2 -34 10 -54t39 -20q14 0 22.5 5.5t13 15t5 23.5t-1.5 30h126q7 -54 -2.5 -92t-30.5 -62t-50 -35.5 t-63 -11.5q-22 0 -41 5.5t-35 15.5t-28 22t-20 26q-8 -14 -21 -26t-31 -22t-38 -15.5t-40 -5.5q-52 0 -86 17.5t-54.5 44t-29 58.5t-8.5 62z" />
<glyph unicode="&#xe48;" d="M-237 1558h156l1 -245h-156z" />
<glyph unicode="&#xe49;" d="M-466 1560h208l2 -124q40 0 72 10t54 27t33 39t11 48h145q0 -48 -19.5 -93t-61 -80t-104 -56t-146.5 -21h-115v126h-77z" />
<glyph unicode="&#xe4a;" d="M-494 1310q-4 56 6 97t29 68t45 40t54 13t52 -14t42 -38q15 24 41.5 38t55.5 14q39 0 70 -22t43 -68q8 10 15 23t12 28.5t8 33t4 33.5h133q0 -25 -6 -51.5t-17.5 -52.5t-27 -49.5t-34 -42.5t-39.5 -32q-21 -14 -43 -18h-107q0 10 -1 25.5t-4 30.5t-9 26t-14 11t-13 -9.5 t-8 -23.5t-4 -30t0 -30h-107q0 13 -1 29.5t-4 30.5t-8 23.5t-12 9.5q-8 0 -13.5 -11t-8.5 -26t-3 -30v-26h-126z" />
<glyph unicode="&#xe4b;" d="M-352 1415l2 121h116v102h152v-102h118l-1 -121h-119l2 -105h-152l-1 105h-117z" />
<glyph unicode="&#xe4c;" d="M-346 1214q-1 58 19.5 103.5t60.5 77.5t96 49.5t128 17.5v-126q-75 0 -115.5 -29t-38.5 -93h-150z" />
<glyph unicode="&#xe4d;" d="M-338 1112q0 33 12 62t33 50.5t49.5 34.5t61.5 13q32 0 61 -13t51 -34.5t35.5 -50.5t13.5 -62t-13 -62t-35 -50.5t-51.5 -34.5t-61.5 -13t-60.5 13t-50 34.5t-33.5 50.5t-12 62zM-236 1112q0 -12 4.5 -22t12 -18t17.5 -13t21 -5q12 0 22.5 5t18.5 13t12 18t4 22t-4.5 22 t-12 18t-18.5 13t-22 5q-12 0 -22 -5t-17.5 -13t-12 -18t-3.5 -22z" />
<glyph unicode="&#xe4e;" d="M-386 968q0 40 9 76.5t27 66t46 51.5t67 32q6 29 23.5 53.5t46.5 42.5t70.5 27.5t96.5 9.5l1 -129q-34 0 -55.5 -5t-33 -16t-16 -26t-4.5 -35l2 -34h-42q-27 0 -43.5 -8t-26.5 -23t-13 -36t-3 -47h-152z" />
<glyph unicode="&#xe4f;" horiz-adv-x="1038" d="M73 418q0 61 15.5 117.5t44.5 105t70 89t90 68.5t106 44t119 16q60 0 116 -16t104.5 -44t88.5 -68.5t68.5 -89t44.5 -104.5q16 -57 16 -118t-16 -117.5t-44.5 -105.5t-69 -89t-89 -68.5t-104.5 -43.5q-57 -16 -117 -16q-62 0 -118 15.5t-105.5 44t-90 68.5t-69 89 t-44.5 105.5t-16 117.5zM194 422q0 -66 25.5 -124.5t69 -102t102.5 -69.5t126 -26q44 0 84.5 12t75.5 33t64 50t49.5 65t32 77t11.5 85t-11 85t-32 76t-50 64t-64.5 49.5t-76 32t-84.5 11.5q-68 0 -126 -25t-101.5 -68t-69 -101t-25.5 -124zM280 422q0 47 19 89t51 73.5 t75 50.5t91 19q47 0 88.5 -19t73 -50.5t50 -73.5t18.5 -89q0 -48 -18 -91t-49.5 -74.5t-73 -50t-89.5 -18.5t-91 18.5t-75 50t-51 74.5t-19 91zM389 422q0 -27 10 -50.5t26.5 -40.5t40.5 -27q22 -9 50 -9q26 0 48 9.5t38.5 26.5t26 40.5t8.5 50.5q0 26 -9.5 48t-25.5 39 t-38 26.5t-47 9.5q-28 0 -51.5 -9.5t-40.5 -26.5t-26.5 -39t-9.5 -48z" />
<glyph unicode="&#xe50;" horiz-adv-x="911" d="M59 366q0 90 27 160.5t77.5 118t124.5 72.5t166 25t166 -25t125 -72.5t79 -118t28 -160.5q0 -103 -32 -175.5t-85.5 -118.5t-125 -67t-153.5 -21q-54 0 -105 9t-95 29t-80 50t-62.5 73t-41 98t-13.5 123zM226 358q0 -51 16.5 -93.5t46 -74.5t71.5 -49.5t95 -17.5 q52 0 94.5 17.5t72 49.5t46 74.5t16.5 93.5q0 66 -18.5 112.5t-49.5 76t-72.5 42.5t-87.5 13t-88 -13t-73.5 -42.5t-50 -76t-18.5 -112.5z" />
<glyph unicode="&#xe51;" horiz-adv-x="905" d="M5 110l133 109q26 -29 56 -48t63.5 -31t70 -16.5t74.5 -4.5q59 0 109.5 17.5t86.5 51.5t57 84t21 115q0 49 -15 90t-43 71t-70 46t-100 16q-47 0 -86 -11t-66.5 -30t-43 -43.5t-15.5 -50.5q0 -24 10.5 -46.5t36.5 -38.5t67 -23t103 1v-122q-32 -8 -58 -10q-24 -2 -46 -2 q-58 0 -110.5 16t-91 46.5t-61.5 73t-21 93.5q0 50 15 90.5t41 72t62 54t78 36.5t88 21q48 7 94 7q84 0 157 -20t127.5 -62t86 -109.5t32.5 -163.5q0 -90 -30.5 -164.5t-87 -127.5t-138.5 -82t-185 -29q-47 0 -96.5 3t-101.5 15.5t-103 37.5q-51 24 -100 68z" />
<glyph unicode="&#xe52;" horiz-adv-x="1034" d="M-6 702l27 142q48 0 87 -13t67.5 -41t43.5 -69t15 -99l1 -302q0 -39 18.5 -73.5t55.5 -59.5t93 -39.5t130 -14.5q70 0 120.5 13.5t83 35.5t48.5 51t16 60v203q0 22 -5.5 38t-15 28t-22.5 20t-29 12l-110 -98l-110 92q-12 -1 -23 -6.5t-19.5 -16.5t-13.5 -27 q-6 -16 -6 -38l2 -46q0 -20 1 -41t6 -37.5t16 -27t31 -10.5h63l-1 -131h-78q-48 0 -82 12.5t-56 32.5t-35 45.5t-19 52.5t-8 53.5t-3 46.5l-1 40q0 47 18 88.5t51 75t79 56.5q46 22 104 30l84 -70l72 70q58 -3 108 -21.5t87.5 -49t58.5 -71.5q20 -40 20 -88v-192 q0 -58 -14 -104.5t-39.5 -83t-61 -63t-78.5 -44t-92 -25.5t-99 -8h-82q-103 0 -183.5 24t-135.5 69t-83 109t-28 142l1 264q-1 55 -19 79.5t-56 24.5z" />
<glyph unicode="&#xe53;" horiz-adv-x="927" d="M64 332l1 55q-1 86 19 149t58.5 105.5t94 66.5t125.5 32l101 -86l107 86q76 -4 130.5 -29t90 -63t53.5 -88q17 -50 17 -104l1 -456h-168l-1 456q0 24 -9 47t-23 40t-32 28q-19 11 -37 13l-130 -107l-126 107q-17 -4 -35.5 -15t-33.5 -34t-25 -58t-10 -88v-55 q0 -23 0.5 -46.5t3 -46t7.5 -42t14.5 -33.5t24.5 -22.5t37 -8.5q7 0 18.5 0.5t26 1.5t32 3t36.5 6l-2 -140q-12 -4 -32 -7t-43 -5t-45 -3t-38 1q-52 6 -88 25.5t-59 47t-35 61.5t-18 69t-7 70.5t-1 66.5z" />
<glyph unicode="&#xe54;" horiz-adv-x="927" d="M64 400q0 84 28 145t80 102t126 60.5t166 19.5h141q28 0 46 8.5t28.5 23.5t14.5 35q4 22 4 46h172q0 -30 -4.5 -60.5t-15.5 -59t-29.5 -53.5t-47.5 -43.5t-69 -29t-94 -10.5h-161q-50 0 -90 -11t-68.5 -31t-43.5 -50.5t-15 -69.5v-96q0 -39 11 -73t35 -58.5t61 -38.5 t87 -14h10q-22 22 -37 52t-16 66q0 12 2 29.5t10 37t23.5 39t43.5 35t70 25.5t102 10v-141q-32 0 -50 -5.5t-26.5 -13t-10 -16t-1.5 -14.5q0 -21 8.5 -39.5t22.5 -33.5t31 -23t33 -8h227l2 -142h-460q-68 0 -120.5 14t-91 38t-64.5 56t-41 68t-22 72q-7 38 -6 72z" />
<glyph unicode="&#xe55;" horiz-adv-x="927" d="M64 324v80q0 70 19 122.5t53.5 90t82 61.5t103.5 39q-1 4 -2 11q0 8 -1 14q0 30 12.5 58t33.5 48t49 32.5t60 12.5q34 0 63 -12.5t50 -32.5t33 -48q10 -28 10 -58v-8l1 -2v-1q20 4 32.5 14.5t20.5 24.5t11 32t3 38h172q0 -30 -4.5 -61t-15 -59t-29.5 -52.5t-48 -43 t-69 -28.5t-94 -10h-153q-50 0 -91.5 -9t-71 -28.5t-46 -50t-17.5 -74.5l2 -96q0 -38 11 -72t34.5 -59.5t60.5 -40t87 -14.5h10q-22 22 -37 52t-16 66q0 12 2 29.5t10 37t23.5 39t43.5 35t70 25.5t102 10v-141q-32 0 -50 -5.5t-26.5 -13t-10 -16t-1.5 -14.5q0 -21 8.5 -39.5 t22.5 -33.5t31 -23t33 -8h227l2 -142h-460q-68 0 -120 14t-91 39t-64.5 57t-41 68t-22.5 73t-7 73zM424 742q0 -24 14 -39t36 -15q25 0 38.5 15t13.5 39q1 24 -13 38t-39 14q-22 0 -35.5 -14t-14.5 -38z" />
<glyph unicode="&#xe56;" horiz-adv-x="940" d="M18 731l134 78l82 -131q22 10 50 21t60.5 19t71 14t82.5 8q74 2 131 -11t100 -36.5t72 -57t47 -73t26 -84t8 -89.5v-51q0 -47 -11.5 -91.5t-34 -84.5t-57 -72t-80 -55t-102 -35t-124.5 -10q-75 2 -137 20t-106.5 50.5t-69 78t-24.5 101.5q0 53 18 91.5t51 63t79.5 36 t104.5 11.5h69l2 -128h-64q-28 0 -46 -6.5t-28.5 -17t-14 -25.5t-3.5 -31q0 -21 13 -39.5t36 -32.5t56 -22t73 -9q44 -1 85.5 12t73 39t51 64.5t19.5 89.5l-1 49q0 54 -13 94.5t-40 66.5t-65.5 38t-87.5 12q-39 -1 -78.5 -7.5t-79.5 -20.5t-82 -36t-88 -53z" />
<glyph unicode="&#xe57;" horiz-adv-x="1100" d="M66 330v55q0 82 20 144t58 106t94 69.5t127 33.5l79 -80l77 80q82 -10 136.5 -40t86.5 -75.5t45 -105t12 -126.5l1 -57q-1 -17 -2.5 -38.5t-4.5 -43.5t-7 -44.5t-10 -41.5q18 14 32 35.5t23 47.5t13.5 54.5t4.5 54.5l-1 264q0 56 16 97.5t44 68.5t67 40.5t87 13.5 l24 -142q-19 0 -32.5 -5.5t-21.5 -18t-12 -32.5t-4 -48v-224q0 -76 -20 -141t-62.5 -114.5t-107 -81t-153.5 -41.5l-127 88q34 33 52 63.5t27 59.5t11 60t2 65v61q0 44 -7.5 76.5t-19.5 55.5t-27.5 37t-33.5 20l-108 -109l-110 113q-16 -4 -33.5 -17t-32 -37t-24.5 -59 t-9 -84l-1 -53v-37t3 -42t8.5 -41t15.5 -36t25.5 -25t37.5 -9q4 0 13 0.5t21.5 1.5t26 2.5t27.5 3.5l4 -142q-11 -3 -27.5 -6.5t-35.5 -5.5t-39 -2q-22 0 -40 4q-50 10 -84 30t-57 47t-37 59t-20 65t-8 66t-2 63z" />
<glyph unicode="&#xe58;" horiz-adv-x="925" d="M68 400q0 76 23.5 136.5t69.5 103t114.5 65t159.5 22.5h191q28 0 45 8.5t28 23.5t15 35q4 22 4 46h170q0 -29 -4 -60t-15 -59.5t-29 -54.5t-47 -45t-68.5 -30t-92.5 -11h-210q-48 0 -83.5 -13.5t-58 -36t-33.5 -50.5t-11 -58l2 -152q0 -23 7.5 -44.5t21 -39t29.5 -29.5 q17 -11 34 -15l136 108l134 -108q18 0 34 6.5t28 20t20 36.5t8 57q0 14 -2.5 29t-10 27.5t-20.5 22t-33 11.5q-7 2 -21 2h-29l1 130h61q48 -2 83.5 -13t60 -27t39.5 -37t23 -45t10 -50q4 -25 4 -50q0 -67 -17 -117.5t-52 -85t-89 -52t-128 -17.5l-102 82l-104 -82 q-72 4 -127.5 28t-93 62t-56.5 87t-17 103z" />
<glyph unicode="&#xe59;" horiz-adv-x="942" d="M65 328v59q0 87 14 153t46.5 110t85.5 67t131 23q14 0 31.5 -0.5t36 -2t36.5 -5.5t34 -11q14 -10 28 -21q14 -10 27 -28l56 53q6 6 15 10.5t23 4.5h49q27 0 43 6t24.5 19t10.5 31q4 20 4 44h168q0 -30 -4 -59.5t-13 -57t-25 -50.5t-42.5 -40t-65 -27t-90.5 -10h-12 q-6 0 -14 -4.5t-16 -11t-16 -15.5t-16 -16l270 -549h-176l-240 494q-24 50 -55 76t-73 26q-23 0 -42.5 -9.5t-34.5 -33t-23 -63t-8 -99.5v-75q0 -18 2 -38.5t6.5 -40t12 -38t18.5 -32t27 -22t37 -8.5q11 0 30 1.5t40 5.5l23 -138q-12 -3 -29 -5.5t-36.5 -4.5t-40 -3t-36.5 1 q-51 6 -87.5 23.5t-60.5 43.5t-39 58.5t-22 67.5t-9.5 71t-2.5 70z" />
<glyph unicode="&#xe5a;" horiz-adv-x="1153" d="M58 600q0 45 12 80.5t32.5 62t48.5 45t59.5 30t65.5 16.5q34 6 66 6h135l-1 -142h-135q-56 0 -81.5 -24.5t-26.5 -75.5q0 -24 7.5 -48.5t26.5 -43.5t51.5 -31t82.5 -12q108 0 164.5 39.5t56.5 123.5v214h168v-840h-168l-1 391q-40 -34 -95 -50.5t-120 -16.5 q-86 0 -151 19t-109 55.5t-66 87.5t-22 114zM907 840h168v-840h-167z" />
<glyph unicode="&#xe5b;" horiz-adv-x="1800" d="M81 436q0 47 10.5 95.5t31.5 94t52 85t72 69.5t91 47t109 17q56 0 101.5 -13.5t80.5 -37t61 -55.5t42.5 -70t24 -80t8.5 -84l-157 -2q0 88 -37.5 133t-107.5 49q-51 0 -91 -20t-67 -55t-41.5 -82t-14.5 -101q0 -50 19.5 -97.5t53.5 -84t82 -58.5t106 -22q56 0 101 18 t78.5 50t57 77t38.5 97t22 111t8 120l109 61q23 -24 44 -50t39.5 -51t34.5 -49q16 -23 28 -42q13 18 29 42t33 48.5t33.5 48.5t31.5 43q14 -22 30.5 -46.5t32 -49t29.5 -47t25 -41.5l63 88h269l106 -164h-322q-14 -18 -29 -41t-31 -50t-32 -56.5t-32 -59.5q-31 65 -59.5 116 t-54.5 93q-27 -40 -59.5 -108t-64.5 -162q-30 87 -60 153.5t-60 110.5q-8 -61 -28.5 -116.5t-51 -102.5t-69.5 -85t-85.5 -64.5t-99.5 -41t-110 -14.5q-68 0 -126 17.5t-105 48t-83 72.5t-60 90t-36.5 101t-12.5 107z" />
<glyph unicode="&#x2000;" horiz-adv-x="819" />
<glyph unicode="&#x2001;" horiz-adv-x="1638" />
<glyph unicode="&#x2002;" horiz-adv-x="819" />
<glyph unicode="&#x2003;" horiz-adv-x="1638" />
<glyph unicode="&#x2004;" horiz-adv-x="546" />
<glyph unicode="&#x2005;" horiz-adv-x="409" />
<glyph unicode="&#x2006;" horiz-adv-x="273" />
<glyph unicode="&#x2007;" horiz-adv-x="273" />
<glyph unicode="&#x2008;" horiz-adv-x="204" />
<glyph unicode="&#x2009;" horiz-adv-x="327" />
<glyph unicode="&#x200a;" horiz-adv-x="91" />
<glyph unicode="&#x200b;" />
<glyph unicode="&#x2010;" horiz-adv-x="663" d="M61 442h537l2 -133h-537z" />
<glyph unicode="&#x2011;" horiz-adv-x="663" d="M61 442h537l2 -133h-537z" />
<glyph unicode="&#x2012;" horiz-adv-x="663" d="M61 442h537l2 -133h-537z" />
<glyph unicode="&#x2013;" horiz-adv-x="702" d="M-1 469h702l1 -157h-702z" />
<glyph unicode="&#x2014;" horiz-adv-x="1388" d="M-1 469h1388l1 -157h-1388z" />
<glyph unicode="&#x2018;" horiz-adv-x="409" d="M108 620v170q0 46 11 86.5t34.5 71t59.5 48.5t85 18v-96q-22 0 -37.5 -9.5t-25.5 -24.5t-15 -34.5t-5 -40.5h82l1 -189h-190z" />
<glyph unicode="&#x2019;" horiz-adv-x="409" d="M109 826l1 188h190v-170q0 -46 -11 -86t-35 -71t-60 -49t-84 -18v97q22 0 37 9.5t25 24.5t14.5 34t4.5 41h-82z" />
<glyph unicode="&#x201c;" horiz-adv-x="639" d="M94 620v170q0 46 11 86.5t34 71t59 48.5t86 18v-96q-22 0 -37.5 -9.5t-26 -24.5t-15.5 -34.5t-5 -40.5h82l2 -189h-190zM354 620v170q0 46 11 86.5t34 71t59 48.5t86 18v-96q-22 0 -37.5 -9.5t-25.5 -24.5t-15 -34.5t-5 -40.5h82l1 -189h-190z" />
<glyph unicode="&#x201d;" horiz-adv-x="639" d="M93 826v188h191v-170q0 -46 -11 -86t-35 -71t-60 -49t-84 -18v97q22 0 37 9.5t24.5 24.5t14 34t4.5 41h-81zM353 826l1 188h190v-170q0 -46 -11 -86t-35 -71t-60 -49t-84 -18v97q22 0 37 9.5t24.5 24.5t14 34t5.5 41h-82z" />
<glyph unicode="&#x2022;" horiz-adv-x="545" d="M38 430q0 44 18 84t49.5 70.5t74 49t89.5 18.5q48 0 91 -18.5t75 -49t50.5 -70.5t18.5 -84q0 -47 -18 -88t-50 -71.5t-75 -48t-91 -17.5t-90 17.5t-74 48t-50 71.5t-18 88z" />
<glyph unicode="&#x202f;" horiz-adv-x="327" />
<glyph unicode="&#x205f;" horiz-adv-x="409" />
<glyph unicode="&#x20ac;" horiz-adv-x="1112" d="M30 542v124h134q20 78 60 143.5t98 113t136 73.5q76 26 172 26q83 0 154.5 -21.5t127 -64.5t92.5 -108q38 -64 52 -150h-180q-10 52 -32 88.5t-53.5 60t-73 34.5t-89.5 11q-57 0 -102.5 -16t-81 -43.5t-60.5 -65t-40 -81.5h292v-124h-316q-1 -9 -1.5 -18t-0.5 -18 q0 -12 1 -24q1 -14 1 -26h316v-122h-292q16 -46 41.5 -83.5t61 -64.5t81 -42t102.5 -15q60 0 106 19.5t78 55t50 84.5q18 50 22 108h176q-10 -100 -43 -177.5t-88 -130t-133 -79.5t-178 -27q-97 0 -174 25.5t-134.5 72t-95.5 111.5t-56 143h-128v122h110v40v46h-112z" />
<glyph unicode="&#x2122;" horiz-adv-x="1376" d="M70 1000h488v-111h-180l-1 -496h-127l2 496h-181zM641 393l1 607h172l160 -402l155 402h174l-1 -607h-130v405l-158 -405h-84l-162 405v-405h-127z" />
<glyph unicode="&#x25cc;" horiz-adv-x="934" d="M215 404l79 38q-2 -18 -3 -38t4 -40zM284 228l32 79q12 -17 24 -31t30 -24zM298 580l82 -29q-22 -11 -38 -23t-24 -28zM426 572l40 80l36 -78q-20 4 -41 3t-35 -5zM428 228q9 -2 17.5 -4t17 -1.5t17.5 2t20 5.5l-35 -78zM558 553l90 27l-35 -82q-12 17 -26.5 30.5 t-28.5 24.5zM559 250q18 10 31 23t24 28l22 -75zM639 366q6 17 5.5 35.5t-5.5 38.5l77 -38z" />
<glyph unicode="&#xe000;" horiz-adv-x="727" d="M0 0v728h728v-728h-728z" />
<glyph unicode="&#xf700;" horiz-adv-x="807" d="M42 576q10 62 40 114t77 89t111 58t142 21q36 0 71 -5t67 -15q17 3 30 11.5t21.5 20.5t12.5 26t4 28h181q0 -24 -6.5 -50t-19.5 -50t-34 -44q-21 -18 -51 -30q27 -32 41 -78.5t13 -108.5q0 -32 -9 -74.5t-24.5 -91.5t-35.5 -101.5t-41.5 -104t-43.5 -100.5t-41 -91h-211 l-136 375h-112v131h244l114 -328q19 44 39.5 94t37.5 99.5t29 96.5q10 46 12 83q1 82 -41.5 123t-127.5 41q-68 0 -110.5 -35.5t-58.5 -103.5h-184z" />
<glyph unicode="&#xf70f;" horiz-adv-x="1325" d="M22 572q8 34 22.5 69t37.5 67t54 59t70.5 47.5t88 32t106.5 11.5q70 0 125.5 -14t96.5 -39t69 -59.5t46 -75t26 -86.5t8 -92v-201q0 -40 12 -71.5t33 -52.5t49 -31.5t60 -10.5q30 0 57 9.5t48 30t33 52t12 74.5l1 549h170l-1 -564q0 -50 -12.5 -92t-34.5 -75t-52 -57 t-65.5 -40t-75.5 -24t-80 -8q-64 0 -123 19t-104 56t-72 93t-27 128v232q0 36 -10 71.5t-33 64t-61.5 46.5t-95.5 18q-46 0 -81 -10t-59.5 -27t-39 -39t-20.5 -44q31 -22 45.5 -62t14.5 -90v-299h90v-137h-258l-1 438q0 18 -3 36.5t-10.5 36t-21.5 33.5q-13 16 -34 28z" />
<glyph unicode="&#xf718;" d="M-308 -342h232l-2 -314h-158l2 185h-73z" />
<glyph unicode="&#xf719;" d="M-609 -342h233v-114q0 -40 18 -61q16 -21 52 -21q34 0 52 20q18 22 18 62v114h158v-114q0 -44 -12 -83t-39 -68t-70.5 -46t-106.5 -17q-59 0 -101.5 14.5t-70.5 40.5t-42 63q-12 36 -14 81h-74z" />
<glyph unicode="&#xf71a;" d="M-286 -438q0 24 9.5 44.5t25 36t36.5 24.5t45 9q23 0 43.5 -9t35.5 -24.5t24 -36t9 -44.5q0 -23 -9 -43.5t-24.5 -36t-36 -24.5t-44.5 -9t-44 9t-36 24.5t-25 36t-9 43.5z" />
<glyph unicode="&#xf71d;" horiz-adv-x="1112" d="M20 840h188l103 -617l142 485h174l149 -487q8 42 16 81.5t15.5 78.5l15 78t15.5 79q7 31 8.5 52.5t1.5 40.5q0 22 -5 38.5t-17 28t-32 17.5t-48 6l1 119q40 2 72 10t55.5 23.5t37.5 40t18 59.5h192q-6 -44 -20 -78.5t-34.5 -59.5t-47 -41t-56.5 -24q22 -19 35 -43.5 t18 -51.5t3 -57q0 -29 -8 -59l-138 -559h-186l-152 482l-143 -482h-186z" />
<glyph unicode="&#xf880;" horiz-adv-x="1038" d="M73 418q0 61 15.5 117.5t44.5 105t70 89t90 68.5t106 44t119 16q60 0 116 -16t104.5 -44t88.5 -68.5t68.5 -89t44.5 -104.5q16 -57 16 -118t-16 -117.5t-44.5 -105.5t-69 -89t-89 -68.5t-104.5 -43.5q-57 -16 -117 -16q-62 0 -118 15.5t-105.5 44t-90 68.5t-69 89 t-44.5 105.5t-16 117.5zM194 422q0 -66 25.5 -124.5t69 -102t102.5 -69.5t126 -26q44 0 84.5 12t75.5 33t64 50t49.5 65t32 77t11.5 85t-11 85t-32 76t-50 64t-64.5 49.5t-76 32t-84.5 11.5q-68 0 -126 -25t-101.5 -68t-69 -101t-25.5 -124zM280 422q0 47 19 89t51 73.5 t75 50.5t91 19q47 0 88.5 -19t73 -50.5t50 -73.5t18.5 -89q0 -48 -18 -91t-49.5 -74.5t-73 -50t-89.5 -18.5t-91 18.5t-75 50t-51 74.5t-19 91zM339 1208h135l-17 -229h-105zM389 422q0 -27 10 -50.5t26.5 -40.5t40.5 -27q22 -9 50 -9q26 0 48 9.5t38.5 26.5t26 40.5 t8.5 50.5q0 26 -9.5 48t-25.5 39t-38 26.5t-47 9.5q-28 0 -51.5 -9.5t-40.5 -26.5t-26.5 -39t-9.5 -48zM562 1208h138l-16 -229h-106z" />
<glyph unicode="&#xf881;" horiz-adv-x="1300" d="M22 582q8 34 22 67t36 64t53 57.5t71.5 46t91.5 30.5q52 11 114 11q101 0 169.5 -24.5t113.5 -67.5q43 45 101.5 67.5t123.5 22.5t120.5 -18t96.5 -54t64 -91t23 -130l-1 -835h-168l1 806q0 90 -35 132t-101 42q-56 0 -92 -33t-44 -97q4 -17 6 -35.5t1 -36.5l-1 -778 h-168v792q1 11 0.5 22.5t-4.5 25.5q-6 28 -20 54t-38.5 46.5t-61 33t-87.5 13.5q-52 0 -89.5 -11.5t-62.5 -29.5t-39 -39t-18 -37q16 -10 27 -26t18 -34.5t10 -40t3 -45.5l2 -315h90v-137h-258v454q0 17 -3.5 34.5t-11 34.5t-21.5 32q-12 15 -34 27z" />
<glyph unicode="&#xf882;" horiz-adv-x="1353" d="M44 137h82v317q0 17 -3 34.5t-10.5 34.5t-21 32t-35.5 27q8 34 23 67t38 64t55 57.5t73.5 46t93 30.5t113.5 11q52 0 95 -7t79 -19t65 -29t51 -39q43 46 102.5 69t126.5 23q65 0 121 -18t96.5 -54t63.5 -91q22 -55 22 -130v-835h-168v806q0 90 -34 132t-100 42 q-58 0 -95 -35t-41 -105q2 -16 3 -31t1 -31v-778h-170v792q0 36 -11 70t-36.5 62t-67 45t-103.5 18q-52 0 -90.5 -11.5t-65 -29.5t-42 -38.5t-19.5 -37.5q12 -12 23 -27.5t18.5 -34t11.5 -40.5t4 -44l3 -452h-250z" />
<glyph d="M-672 968q0 40 8 76.5t26.5 66t47 51.5t68.5 32q7 29 24.5 53.5t46.5 42.5t70 27.5t97 9.5l1 -129q-34 0 -55.5 -5t-33.5 -16t-16 -26t-4 -35v-34h-40q-27 0 -44.5 -8t-27.5 -23t-13.5 -36t-3.5 -47h-151z" />
<glyph horiz-adv-x="919" d="M44 137h82v317q0 17 -3 34.5t-10.5 34.5t-21 32t-35.5 27q8 34 23 67t38 64t55 57.5t73.5 46t93 30.5t113.5 11q74 0 132 -13.5t101 -38t73 -57.5t48 -72t26 -82.5t8 -88.5l2 -795h-164q-12 18 -29 35.5t-41 30.5t-57 21t-78 8q-36 0 -68 -8t-61.5 -23t-56.5 -37 q-27 -24 -53 -52l1 162q18 20 43.5 37t56.5 30t66 20t74 7q36 0 66 -5t54.5 -12.5t42.5 -16.5q19 -8 32 -16v628q0 36 -11 70t-36.5 62t-67 45t-103.5 18q-52 0 -90.5 -11.5t-65 -29.5t-42 -38.5t-19.5 -37.5q12 -12 23 -27.5t18.5 -34t11.5 -40.5t4 -44l3 -452h-250z M640 -459q0 24 9 44.5t24.5 36.5t36.5 25t45 9q23 0 43 -9t35.5 -25t24.5 -36q10 -21 10 -45q0 -23 -9 -43.5t-25 -36t-36.5 -24.5t-43.5 -9q-24 0 -44.5 9t-36 24.5t-24.5 36t-9 43.5z" />
<glyph horiz-adv-x="919" d="M44 137h82v317q0 17 -3 34.5t-10.5 34.5t-21 32t-35.5 27q8 34 23 67t38 64t55 57.5t73.5 46t93 30.5t113.5 11q74 0 132 -13.5t101 -38t73 -57.5t48 -72t26 -82.5t8 -88.5l2 -795h-168q-3 14 -10 31.5t-18.5 32.5t-26.5 25t-37 10q-20 0 -35 -10t-25.5 -24.5t-15 -32 t-4.5 -32.5h-142q0 11 -3 28t-12 33t-24 28t-37 12q-18 0 -31 -9.5t-21.5 -24t-12 -32.5t-3.5 -35h-134q0 60 16 103.5t43.5 71.5t61 41t67.5 13q50 0 88.5 -20t63.5 -57q14 18 31.5 31.5t36 22.5t37.5 13t35 4q37 0 63.5 -11t45.5 -27l-1 624q0 36 -11 70t-36.5 62t-67 45 t-103.5 18q-52 0 -90.5 -11.5t-65 -29.5t-42 -38.5t-19.5 -37.5q12 -12 23 -27.5t18.5 -34t11.5 -40.5t4 -44l3 -452h-250zM640 -459q0 24 9 44.5t24.5 36.5t36.5 25t45 9q23 0 43 -9t35.5 -25t24.5 -36q10 -21 10 -45q0 -23 -9 -43.5t-25 -36t-36.5 -24.5t-43.5 -9 q-24 0 -44.5 9t-36 24.5t-24.5 36t-9 43.5z" />
<glyph horiz-adv-x="919" d="M44 137h82v317q0 17 -3 34.5t-10.5 34.5t-21 32t-35.5 27q8 34 23 67t38 64t55 57.5t73.5 46t93 30.5t113.5 11q74 0 132 -13.5t101 -38t73 -57.5t48 -72t26 -82.5t8 -88.5l2 -795h-164q-12 18 -29 35.5t-41 30.5t-57 21t-78 8q-36 0 -68 -8t-61.5 -23t-56.5 -37 q-27 -24 -53 -52l1 162q18 20 43.5 37t56.5 30t66 20t74 7q36 0 66 -5t54.5 -12.5t42.5 -16.5q19 -8 32 -16v628q0 36 -11 70t-36.5 62t-67 45t-103.5 18q-52 0 -90.5 -11.5t-65 -29.5t-42 -38.5t-19.5 -37.5q12 -12 23 -27.5t18.5 -34t11.5 -40.5t4 -44l3 -452h-250z M609 -342h231v-314h-158l2 185h-74z" />
<glyph horiz-adv-x="919" d="M44 137h82v317q0 17 -3 34.5t-10.5 34.5t-21 32t-35.5 27q8 34 23 67t38 64t55 57.5t73.5 46t93 30.5t113.5 11q74 0 132 -13.5t101 -38t73 -57.5t48 -72t26 -82.5t8 -88.5l2 -795h-168q-3 14 -10 31.5t-18.5 32.5t-26.5 25t-37 10q-20 0 -35 -10t-25.5 -24.5t-15 -32 t-4.5 -32.5h-142q0 11 -3 28t-12 33t-24 28t-37 12q-18 0 -31 -9.5t-21.5 -24t-12 -32.5t-3.5 -35h-134q0 60 16 103.5t43.5 71.5t61 41t67.5 13q50 0 88.5 -20t63.5 -57q14 18 31.5 31.5t36 22.5t37.5 13t35 4q37 0 63.5 -11t45.5 -27l-1 624q0 36 -11 70t-36.5 62t-67 45 t-103.5 18q-52 0 -90.5 -11.5t-65 -29.5t-42 -38.5t-19.5 -37.5q12 -12 23 -27.5t18.5 -34t11.5 -40.5t4 -44l3 -452h-250zM609 -342h231v-314h-158l2 185h-74z" />
<glyph horiz-adv-x="715" d="M-644 1112q0 33 12.5 62t34 50.5t50.5 34.5t62 13q32 0 61.5 -13t51.5 -34.5t35 -50.5t13 -62t-13 -62t-35 -50.5t-51 -34.5t-61 -13q-33 0 -62.5 13t-50.5 34.5t-34 50.5t-13 62zM-541 1112q0 -12 4.5 -22t12.5 -18t18 -13t22 -5t22 5t18 13t13 18t5 22t-5 22t-13 18 t-18 13t-22 5t-22 -5t-18 -13t-12.5 -18t-4.5 -22zM22 563q0 48 12 88t33 72.5t50.5 57.5t64 41.5t72.5 25t78 8.5q65 0 120.5 -18t96.5 -54t64 -91t23 -130l1 -563h-168l-1 534q1 90 -34.5 132t-101.5 42q-58 0 -94 -36t-40 -109h-176z" />
<glyph horiz-adv-x="715" d="M-644 1112q0 33 12.5 62t34 50.5t50.5 34.5t62 13q32 0 61.5 -13t51.5 -34.5t35 -50.5t13 -62t-13 -62t-35 -50.5t-51 -34.5t-61 -13q-33 0 -62.5 13t-50.5 34.5t-34 50.5t-13 62zM-541 1112q0 -12 4.5 -22t12.5 -18t18 -13t22 -5t22 5t18 13t13 18t5 22t-5 22t-13 18 t-18 13t-22 5t-22 -5t-18 -13t-12.5 -18t-4.5 -22zM22 563q0 48 12 88t33 72.5t50.5 57.5t64 41.5t72.5 25t78 8.5q65 0 120.5 -18t96.5 -54t64 -91t23 -130l1 -563h-168l-1 534q1 90 -34.5 132t-101.5 42q-58 0 -94 -36t-40 -109h-176z" />
<glyph horiz-adv-x="919" d="M44 137h82v317q0 17 -3 34.5t-10.5 34.5t-21 32t-35.5 27q8 34 23 67t38 64t55 57.5t73.5 46t93 30.5t113.5 11q74 0 132 -13.5t101 -38t73 -57.5t48 -72t26 -82.5t8 -88.5l2 -795h-164q-12 18 -29 35.5t-41 30.5t-57 21t-78 8q-36 0 -68 -8t-61.5 -23t-56.5 -37 q-27 -24 -53 -52l1 162q18 20 43.5 37t56.5 30t66 20t74 7q36 0 66 -5t54.5 -12.5t42.5 -16.5q19 -8 32 -16v628q0 36 -11 70t-36.5 62t-67 45t-103.5 18q-52 0 -90.5 -11.5t-65 -29.5t-42 -38.5t-19.5 -37.5q12 -12 23 -27.5t18.5 -34t11.5 -40.5t4 -44l3 -452h-250z M310 -342h234v-114q0 -40 17 -61t53 -21q34 0 52 20q18 22 16 62l1 114h157v-114q0 -44 -12 -83t-38.5 -68t-70 -46t-106.5 -17q-59 0 -101.5 14.5t-70 40.5t-41.5 62.5t-16 81.5h-73z" />
<glyph horiz-adv-x="919" d="M44 137h82v317q0 17 -3 34.5t-10.5 34.5t-21 32t-35.5 27q8 34 23 67t38 64t55 57.5t73.5 46t93 30.5t113.5 11q74 0 132 -13.5t101 -38t73 -57.5t48 -72t26 -82.5t8 -88.5l2 -795h-168q-3 14 -10 31.5t-18.5 32.5t-26.5 25t-37 10q-20 0 -35 -10t-25.5 -24.5t-15 -32 t-4.5 -32.5h-142q0 11 -3 28t-12 33t-24 28t-37 12q-18 0 -31 -9.5t-21.5 -24t-12 -32.5t-3.5 -35h-134q0 60 16 103.5t43.5 71.5t61 41t67.5 13q50 0 88.5 -20t63.5 -57q14 18 31.5 31.5t36 22.5t37.5 13t35 4q37 0 63.5 -11t45.5 -27l-1 624q0 36 -11 70t-36.5 62t-67 45 t-103.5 18q-52 0 -90.5 -11.5t-65 -29.5t-42 -38.5t-19.5 -37.5q12 -12 23 -27.5t18.5 -34t11.5 -40.5t4 -44l3 -452h-250zM310 -342h234v-114q0 -40 17 -61t53 -21q34 0 52 20q18 22 16 62l1 114h157v-114q0 -44 -12 -83t-38.5 -68t-70 -46t-106.5 -17q-59 0 -101.5 14.5 t-70 40.5t-41.5 62.5t-16 81.5h-73z" />
<glyph d="M-688 966l68 134h542v-134h-610z" />
<glyph d="M-688 966l68 134h384l-2 118h159l1 -252h-610z" />
<glyph d="M-688 966l68 134h268l-1 14q0 30 11.5 57t31 47t46 32t56.5 12t57 -12t47.5 -32t32 -47t11.5 -57q0 -31 -11 -57.5t-31 -46.5t-46.5 -32t-56.5 -12h-483zM-259 1114q0 -10 4.5 -20t11.5 -16.5t16.5 -10.5t19.5 -4t20 4t17 10.5t11.5 16.5t4.5 20q0 24 -16 39t-37 15 q-10 0 -20 -4t-17 -11.5t-11 -17t-4 -21.5z" />
<glyph d="M-688 966l68 134h166l-2 118h152l1 -118h73v118h151l1 -252h-610z" />
<glyph d="M-1082 966l66 134h725v-134h-791z" />
<glyph d="M-1082 966l66 134h566l-2 118h160l1 -252h-791z" />
<glyph d="M-1082 966l68 134h448v14q0 30 11.5 57t31 47t46.5 32t57 12t57.5 -12t47 -32t31.5 -47q10 -27 10 -57q0 -31 -10.5 -57.5t-30 -46.5t-46.5 -32t-57 -12h-664zM-472 1114q0 -22 15.5 -36.5t38.5 -14.5q22 0 36 14.5t14 36.5q0 24 -14 39t-36 15q-12 0 -22 -4t-17 -11.5 t-11 -17t-4 -21.5z" />
<glyph d="M-1082 966l68 134h344v118h151l1 -118h76l-2 118h152l1 -252h-791z" />
<glyph d="M-448 1558h154l2 -245h-155z" />
<glyph d="M-690 1560h211l2 -124q40 0 71.5 10t53 27t32.5 39t11 48h145q0 -48 -20 -93t-61 -80t-103 -56t-146 -21h-116v126h-78z" />
<glyph d="M-688 1310q-4 56 6 97t29 68t45 40t54 13q30 0 54 -14t41 -38q15 24 41 38t56 14q18 0 36 -5.5t32.5 -17t26 -28.5t17.5 -39q8 10 15 23t12 28.5t8 33t3 33.5h134q0 -25 -6 -51.5t-17.5 -52.5t-27 -49.5t-34.5 -42.5t-40 -32q-21 -14 -43 -18h-104q0 10 -1.5 25.5 t-4.5 30.5t-8.5 26t-13.5 11t-13.5 -9.5t-8 -23.5t-3.5 -30t-1 -30h-108q0 13 -1 29.5t-4 30.5t-8 23.5t-13 9.5t-13 -11t-8 -26t-4 -30.5t0 -25.5h-125z" />
<glyph d="M-564 1415v121h119l1 102h149l-1 -102h120l-2 -121h-118l3 -105h-151l-2 105h-118z" />
<glyph d="M-1032 966l68 134h886v-134h-954z" />
<glyph d="M-1032 966l68 134h728l-2 118h159l1 -252h-954z" />
<glyph d="M-1032 966l68 134h612l-1 14q0 30 11.5 57t31 47t46 32t56.5 12t57 -12t47.5 -32t32 -47t11.5 -57q0 -31 -11 -57.5t-31 -46.5t-46.5 -32t-56.5 -12h-827zM-259 1114q0 -10 4.5 -20t11.5 -16.5t16.5 -10.5t19.5 -4t20 4t17 10.5t11.5 16.5t4.5 20q0 24 -16 39t-37 15 q-10 0 -20 -4t-17 -11.5t-11 -17t-4 -21.5z" />
<glyph d="M-1032 966l68 134h510l-2 118h152l1 -118h73v118h151l1 -252h-954z" />
<glyph d="M-236 1210v246h156l-1 -246h-155z" />
<glyph d="M-466 1333l1 125h209v-125q40 1 72 11t54 27t34 39t12 48h144q0 -48 -20 -93t-61.5 -80t-103.5 -56t-146 -21h-117v125h-78z" />
<glyph d="M-556 1208q-4 56 6 97t29 67.5t45 40t54 13.5q30 0 54 -14t41 -38q16 24 41.5 38t54.5 14q39 0 70 -22t43 -68q8 9 16 22.5t13 29t7 32.5t2 34h133q0 -25 -5.5 -51.5t-16.5 -52.5t-26.5 -49.5t-34 -42.5t-39.5 -32q-21 -14 -44 -18h-107q0 9 -1 24.5t-4 30.5t-9 26 t-14 11t-12.5 -9t-7 -23t-2.5 -30t-1 -30h-109q0 13 -0.5 29.5t-3.5 30.5t-8.5 23t-12.5 9q-8 0 -13.5 -11t-8.5 -26t-3 -30v-25h-126z" />
<glyph d="M-352 1434h117l1 102h152l-2 -102h119l1 -121h-118v-105h-152v105h-116z" />
<glyph d="M-503 1231l1 245h156l-2 -245h-155z" />
<glyph d="M-730 1354v124h211v-124q40 1 72.5 10.5t54.5 26.5t34 39q11 22 11 48h143q0 -48 -20 -93t-61 -80t-103 -55q-64 -21 -148 -21h-116v125h-78z" />
<glyph d="M-771 1229q-4 56 6 96.5t29.5 67.5t45.5 40q28 13 56 13q29 0 52 -14t40 -38q16 24 43 38t57 14q38 0 69 -22t42 -68q9 9 16 22.5t12 29.5t7 33q4 17 4 33h132q0 -25 -6 -51.5t-17.5 -52.5t-27 -49.5t-34 -42t-39 -31.5t-42.5 -18h-107q0 9 -0.5 24.5t-3.5 30.5t-8 26 t-13 11t-14 -9.5t-9 -23.5t-4 -30t-1 -29h-109q0 13 -0.5 29t-3.5 30t-7 24q-4 9 -12 9t-14 -11t-9 -26t-4 -30.5t-1 -24.5h-125z" />
<glyph d="M-622 1454h118l2 102h151l-1 -102h116l2 -121h-116l-1 -104h-151v104h-119z" />
<glyph d="M-476 -226l2 130h231l-1 -314h-158v184h-74z" />
<glyph d="M-664 -226l1 130h233v-115q-1 -40 16 -61q16 -21 52 -21q34 0 52 21t19 61l1 115h158l-1 -115q-1 -44 -13 -82.5t-38.5 -67.5t-69.5 -46t-106 -17q-60 0 -102 14t-70 40.5t-42 63t-17 80.5h-73z" />
<glyph d="M-472 -184q0 24 9 44.5t24.5 36t36 24.5t44.5 9q23 0 43.5 -9t36 -24.5t24.5 -36t9 -44.5q0 -23 -8.5 -43.5t-23.5 -36t-36 -24.5t-43 -9q-24 0 -45 9t-37 24.5t-25 36t-9 43.5z" />
<glyph d="M-456 -226l2 130h232l-2 -314h-158v184h-74z" />
<glyph d="M-767 -226l1 130h234v-115q-1 -40 15.5 -61t52.5 -21q34 0 52 21t18 61l2 115h157l-1 -115q0 -44 -12 -82.5t-38.5 -67.5t-70 -46t-105.5 -17q-59 0 -101.5 14t-70.5 40.5t-42 63.5q-16 36 -18 80h-73z" />
<glyph d="M-440 -184q0 24 9 44.5t25 36t36.5 24.5t44.5 9q23 0 44 -9t36 -24.5t24 -36t9 -44.5q0 -23 -9 -43.5t-24 -36t-35 -24.5t-44 -9t-45 9t-36.5 24.5t-25 36t-9.5 43.5z" />
<glyph d="M-636 968v202h156l-1 -72h643v-130h-798z" />
<glyph d="M-490 1313v245h155l1 -245h-156z" />
<glyph d="M-704 1560h210l2 -124q40 0 72 10t54 27t33 39t9 48h146q0 -48 -19.5 -93t-60.5 -80t-103.5 -56t-146.5 -21h-116v126h-78z" />
<glyph d="M-666 1310q-4 56 6 97t29 68t45 40t54 13q30 0 54 -14t42 -38q15 24 41.5 38t55.5 14q18 0 35.5 -5.5t32.5 -17t26 -28.5t17 -39q8 10 15 23t12 28.5t8 33t4 33.5h133q0 -25 -6 -51.5t-17 -52.5t-27 -49.5t-34.5 -42.5t-39.5 -32q-21 -14 -43 -18h-105q0 10 -1 25.5 t-4 30.5t-9 26t-14 11t-13 -9.5t-8 -23.5t-4 -30t0 -30h-109q0 13 -1 29.5t-4 30.5t-8 23.5t-12 9.5q-8 0 -13.5 -11t-8.5 -26t-3 -30v-26h-126z" />
<glyph d="M-608 1415l2 121h118v102h150l2 -102h116v-121h-118l2 -105h-152l-1 105h-119z" />
</font>
</defs>
</svg>
